MEGA SALE -75% Borderlands 3 Super Deluxe всего за 550р. 180 руб. (супер цена). Внимание количество ограничено!!!

iTunes

1+1

iTunes

мы

iTunes

1

iTunes

Чернобыль

iTunes

Ральф против интернета

Лицензия

ПШазам

Лицензия

Игра престолов

Лицензия

30
pack

ВАЖНО

!!Акция!!

Alien_RageХит недели

RePack

Resident Evil 21

ИГРА 18+

pack

RePack

Metro:Exodus

!!Акция!!

Alien_Rage

RePack

fifa19

RePack

Assassins Creed: Odyssey

RePack

NEED FOR SPEED™ PAYBACK

3 сезон

9 сезон

Бесстыжие 9 сезон

Все сериалы

все сериалы на PB.wtf

RePack

FAR CRY 5
Ребята, катастрофически не хватает 1900р. для оплаты серверов за АВГУСТ (всвязи с блокировками трафик упал в 3 раза), 1-2р., выручайте.
  

Бизнесмены / Biznesmeny (Акан Сатаев) [2018, драма, криминал, WEB-DLRip] [iTunes] piratbit.org

Бизнесмены через торрент piratbit.org

Раздают: 1 [ 0 KB/s ]
Размер: 1.46 GB | Добавлен: 3 мес. 23 д. назад | Торрент скачан:100 раз
Скачать  

15-04-2019 09:37 Бизнесмены Скачать торрент  

Бизнесмены / Biznesmeny Год выпуска: 2018
Страна: Казахстан
Жанр: драма, криминал
Продолжительность: 01:34:16
Перевод: Не требуется | iTunes
Субтитры: отсутствуют

Режиссер: Акан Сатаев

rating

В ролях:

Аскар Ильясов, Айсулу Азимбаева, Шарип Серик, Расим Жубаев, Константин Крюков, Еркен Губашев, Санжар Мади, Дина Тасбулатова

Описание:

90-е годы прошлого века. Трое друзей, пытаясь наладить свою жизнь, сталкиваются с таким понятием, как бизнес. Однако бизнес - это всегда риск, и молодым предпринимателям придется пожертвовать многим ради успеха. Герои фильма становятся одними из первых, кто стоял у истоков рыночных отношений в Казахстане.

Качество: WEB-DLRip
Формат: AVI

Видео: 720x320 (2.25:1), 24.000 fps, XviD build 73 ~1817 kbps avg, 0.33 bit/pixel
Аудио: 48 kHz, AC3 Dolby Digital, 3/2 (L,C,R,l,r) + LFE ch, ~384 kbps - iTunes
скриншот  скриншот  скриншот  скриншот  

Формат: AVI
Формат/Информация: Audio Video Interleave
Размер файла: 1,46 Гбайт
Продолжительность: 1 ч. 34 м.
Общий поток: 2211 Кбит/сек
Название фильма: Бизнесмены_2018_WEB-DLRip
Программа кодирования: VirtualDubMod 1.5.10.3
Авторское право: порошков

Видео
Идентификатор: 0
Формат: MPEG-4 Visual
Профиль формата: Advanced Simple@L5
Настройки формата: BVOP1 / Custom Matrix
Параметр BVOP формата: 1
Параметр QPel формата: Нет
Параметр GMC формата: Без точки перехода
Параметр матрицы формата: Выборочная
Идентификатор кодека: XVID
Идентификатор кодека/Подсказка: XviD
Продолжительность: 1 ч. 34 м.
Битрейт: 1817 Кбит/сек
Ширина: 720 пикселей
Высота: 320 пикселей
Соотношение сторон: 2,25:1
Частота кадров: 24,000 кадра/сек
Цветовое пространство: YUV
Субдискретизация насыщенности: 4:2:0
Битовая глубина: 8 бит
Тип развёртки: Прогрессивная
Метод сжатия: С потерями
Бит/(Пиксели*Кадры): 0.329
Размер потока: 1,20 Гбайт (82%)
Библиотека кодирования: XviD 73

Аудио
Идентификатор: 1
Формат: AC-3
Формат/Информация: Audio Coding 3
Коммерческое название: Dolby Digital
Идентификатор кодека: 2000
Продолжительность: 1 ч. 34 м.
Вид битрейта: Постоянный
Битрейт: 384 Кбит/сек
Каналы: 6 каналов
ChannelLayout: L R C LFE Ls Rs
Частота: 48,0 КГц
Частота кадров: 31,250 кадров/сек (1536 SPF)
Битовая глубина: 16 бит
Метод сжатия: С потерями
Размер потока: 259 Мбайт (17%)
Выравнивание: Разделение по промежуткам
Продолжительность промежутка: 42 мс. (1,00 видеокадр)
Время предзагрузки промежутка: 500 мс.
piratbit.org



Скачать Бизнесмены через торрент https://d.radikal.ru/d26/1904/d2/b18cd73a867a.jpg Скачать фильм Бизнесмены через торрент бесплантно в хорошем качестве Описание: 90-е годы прошлого века. Трое друзей, пытаясь наладить свою жизнь, сталкиваются с таким понятием, как бизнес. Однако бизнес - это ... 9.2 10 13
Торрент: Зарегистрирован [2019-06-21 07:31] · скачан: 100 раз
Статус: √ проверено
Размер: 1.46 GB
Как cкачать? Как скачать Бизнесмены через торрент | qTorrent

% Раздел Тема Автор DL S | L
T Наши фильмы (мультфильмы) cо спонсором показа (Новинки AVI/MKV) [ 4.16 GB ] Бизнесмены / Biznesmeny [2018 WEB-DL 1080p] bober100 Скачать
2 | 0
T Наши фильмы (мультфильмы) cо спонсором показа (Новинки AVI/MKV) [ 3.67 GB ] Бизнесмены / Biznesmeny [2018 WEB-DL 720p] bober100 Скачать
1 | 0


Последний раз редактировалось: bober100 (2019-06-21 07:30), всего редактировалось 1 раз


>> Регистрируемся здесь <<






Отзывы и комментарии о схеме читаем и пишем здесь: ---> Отзывы и комментарии о схеме

Новые благодарочки в телеграм довольных пользователей:
скриншот   скриншот   скриншот   скриншот   скриншот

07-05-2019 17:38 Бизнесмены Скачать торрент  

хороший фильм , умеют казахиpiratbit.org



    Дорогой пользователь! Огромная просьба, поблагодарите релизера, оцените раздачу и оставьте свои комментарий, если Вы скачали Бизнесмены через торрент бесплатно! Внесите свою лепту в развитие PiratBit!
    Комментировать посты могут только пользователи прошедшие не сложную регистрацию
    Показать сообщения:    

    Бизнесмены через торрент
    Скачать бесплатно Бизнесмены
    Бизнесмены скачать торрент
    Бизнесмены смотреть онлайн
    Cкачать фильм Бизнесмены бесплатно
    Бизнесмены скачать торрент в хорошем качестве
    Бизнесмены смотреть онлайн бесплатно в хорошем качестве


    Вы не можете начинать темы
    Вы не можете отвечать на сообщения
    Вы не можете редактировать свои сообщения
    Вы не можете удалять свои сообщения
    Вы не можете голосовать в опросах
    Вы не можете прикреплять файлы к сообщениям
    Вы можете скачивать файлы