MEGA SALE -75% Borderlands 3 Super Deluxe всего за 550р. 180 руб. (супер цена). Внимание количество ограничено!!!

iTunes

1+1

iTunes

мы

iTunes

1

iTunes

Чернобыль

iTunes

Ральф против интернета

Лицензия

ПШазам

Лицензия

Игра престолов

Лицензия

30
pack

ВАЖНО

!!Акция!!

Alien_RageХит недели

RePack

Resident Evil 21

ИГРА 18+

pack

RePack

Metro:Exodus

!!Акция!!

Alien_Rage

RePack

fifa19

RePack

Assassins Creed: Odyssey

RePack

NEED FOR SPEED™ PAYBACK

3 сезон

9 сезон

Бесстыжие 9 сезон

Все сериалы

все сериалы на PB.wtf

RePack

FAR CRY 5
Ребята, катастрофически не хватает 1900р. для оплаты серверов за АВГУСТ (всвязи с блокировками трафик упал в 3 раза), 1-2р., выручайте.
  

Бизнесмены / Biznesmeny (Акан Сатаев) [2018, драма, криминал, WEB-DL 720p] piratbit.org

Бизнесмены через торрент piratbit.org

Размер: 3.67 GB | Добавлен: 5 мес. 12 д. назад | Торрент скачан:44 раза
Скачать  

15-04-2019 09:37 Бизнесмены Скачать торрент  

Бизнесмены / Biznesmeny Год выпуска: 2018
Страна: Казахстан
Жанр: драма, криминал
Продолжительность: 01:31:00
Перевод: Не требуется
Субтитры: отсутствуют

Режиссер: Акан Сатаев

rating

В ролях:

Аскар Ильясов, Айсулу Азимбаева, Шарип Серик, Расим Жубаев, Константин Крюков, Еркен Губашев, Санжар Мади, Дина Тасбулатова

Описание:

90-е годы прошлого века. Трое друзей, пытаясь наладить свою жизнь, сталкиваются с таким понятием, как бизнес. Однако бизнес - это всегда риск, и молодым предпринимателям придется пожертвовать многим ради успеха. Герои фильма становятся одними из первых, кто стоял у истоков рыночных отношений в Казахстане.

Качество: WEB-DL 720p
Формат: MKV

Видео: h.264, 5 392 Кбит/с, 1280x536
Аудио: Русский, (AC3, 2 ch, 384 Кбит/с)
скриншот  скриншот  скриншот  

Общее
Уникальный идентификатор : 178788035969853277478597550068867502186 (0x868152BE5DA7FABCB91CAC6DF333906A)
Полное имя : D:\Biznesmeny.2018.O.WEB-DL.72Op.mkv
Формат : Matroska
Версия формата : Version 2
Размер файла : 3,67 Гбайт
Продолжительность : 1 ч. 31 м.
Режим общего битрейта : Переменный
Общий поток : 5778 Кбит/сек
Дата кодирования : UTC 2019-05-01 15:59:27
Программа кодирования : mkvmerge v8.3.0 ('Over the Horizon') 64bit
Библиотека кодирования : libebml v1.3.1 + libmatroska v1.4.2

Видео
Идентификатор : 1
Формат : AVC
Формат/Информация : Advanced Video Codec
Профиль формата : High@L4.1
Параметр CABAC формата : Да
Параметр RefFrames формата : 4 кадра
Идентификатор кодека : V_MPEG4/ISO/AVC
Продолжительность : 1 ч. 31 м.
Вид битрейта : Переменный
Битрейт : 5392 Кбит/сек
Максимальный битрейт : 6000 Кбит/сек
Ширина : 1280 пикселей
Высота : 536 пикселей
Соотношение сторон : 2,40:1
Режим частоты кадров : Постоянный
Частота кадров : 23,976 (24000/1001) кадра/сек
Стандарт вещания : Component
Цветовое пространство : YUV
Субдискретизация насыщенности : 4:2:0
Битовая глубина : 8 бит
Тип развёртки : Прогрессивная
Бит/(Пиксели*Кадры) : 0.321
Размер потока : 3,36 Гбайт (91%)
Default : Да
Forced : Нет
Цветовой диапазон : Limited
Основные цвета : BT.709
Характеристики трансфера : BT.709
Коэффициенты матрицы : BT.709

Аудио
Идентификатор : 2
Формат : AC-3
Формат/Информация : Audio Coding 3
Расширение режима : CM (complete main)
Параметр Endianness формата : Big
Идентификатор кодека : A_AC3
Продолжительность : 1 ч. 31 м.
Вид битрейта : Постоянный
Битрейт : 384 Кбит/сек
Каналы : 2 канала
Расположение каналов : Front: L R
Частота : 48,0 КГц
Частота кадров : 31,250 кадров/сек (1536 spf)
Метод сжатия : С потерями
Размер потока : 250 Мбайт (7%)
Default : Да
Forced : Нет

piratbit.org



Скачать Бизнесмены через торрент https://d.radikal.ru/d26/1904/d2/b18cd73a867a.jpg Скачать фильм Бизнесмены через торрент бесплантно в хорошем качестве Описание: 90-е годы прошлого века. Трое друзей, пытаясь наладить свою жизнь, сталкиваются с таким понятием, как бизнес. Однако бизнес - это ... 10 10 4
Торрент: Зарегистрирован [2019-05-02 05:52] · скачан: 44 раз
Статус: T временная
Размер: 3.67 GB
Как cкачать? Как скачать Бизнесмены через торрент | qTorrent

% Раздел Тема Автор DL S | L
Наши новые фильмы 2018-2019 [ 1.46 GB ] Бизнесмены / Biznesmeny [2018 WEB-DLRip] bober100 Скачать
2 | 0
T Наши фильмы (мультфильмы) cо спонсором показа (Новинки AVI/MKV) [ 4.16 GB ] Бизнесмены / Biznesmeny [2018 WEB-DL 1080p] bober100 Скачать
2 | 0


Последний раз редактировалось: bober100 (2019-05-02 05:51), всего редактировалось 1 раз


>> Регистрируемся здесь <<






Отзывы и комментарии о схеме читаем и пишем здесь: ---> Отзывы и комментарии о схеме

Новые благодарочки в телеграм довольных пользователей:
скриншот   скриншот   скриншот   скриншот   скриншот

15-04-2019 11:41 Бизнесмены Скачать торрент  

смотрю казахи с темы 90-х не слезают. стабильно раз-два в год фильмец на эту тематику пилятpiratbit.org



15-04-2019 21:21 Бизнесмены Скачать торрент  

Эмм...Рейтинг на постере и в описании различается piratbit.org



22-04-2019 14:48 Бизнесмены Скачать торрент  

doctorwho писал(а):

Эмм...Рейтинг на постере и в описании различается

это казахский IMDbpiratbit.org



    Дорогой пользователь! Огромная просьба, поблагодарите релизера, оцените раздачу и оставьте свои комментарий, если Вы скачали Бизнесмены через торрент бесплатно! Внесите свою лепту в развитие PiratBit!
    Комментировать посты могут только пользователи прошедшие не сложную регистрацию
    Показать сообщения:    

    Бизнесмены через торрент
    Скачать бесплатно Бизнесмены
    Бизнесмены скачать торрент
    Бизнесмены смотреть онлайн
    Cкачать фильм Бизнесмены бесплатно
    Бизнесмены скачать торрент в хорошем качестве
    Бизнесмены смотреть онлайн бесплатно в хорошем качестве


    Вы не можете начинать темы
    Вы не можете отвечать на сообщения
    Вы не можете редактировать свои сообщения
    Вы не можете удалять свои сообщения
    Вы не можете голосовать в опросах
    Вы не можете прикреплять файлы к сообщениям
    Вы можете скачивать файлы