ВНИМАНИЕ!!! Роскомнадзор заблокировал piratbit.org в РФ навсегда, просьба установить наш плагин который откроет доступ из РФ, для Хром, Ябраузер, Опера -> Mozilla FireFox и перейти на pb.wtf. о плагине

Лицензия

30

MVO

Как приручить дракона 3

11 сезон

1

1 сезон

гринч

iTunes

Стекло

iTunes

Клаустрофобы

8 сезон

Игра престолов

iTunes

Ральф против интернета Хит недели

ИГРА 18+

pack

ВАЖНО

!!Акция!!

Alien_RageХит недели

RePack

Resident Evil 21
pack

RePack

Metro:Exodus

!!Акция!!

Alien_Rage

RePack

fifa19

RePack

Assassins Creed: Odyssey

RePack

NEED FOR SPEED™ PAYBACK

3 сезон

9 сезон

Бесстыжие 9 сезон

Все сериалы

все сериалы на PB.wtf

RePack

FAR CRY 5
Ребята, критически не успеваем дособрать 3200р. для оплаты серверов за Март (всвязи с блокировками трафик упал в 3 раза), 1-2р., выручайте.
  

Бизнесмены / Biznesmeny (Акан Сатаев) [2018, драма, криминал, TS 720p] piratbit.org

Бизнесмены через торрент piratbit.org

Раздают: 5 [ 435 KB/s ] Качают: 1 [ 91 KB/s ]
Размер: 2.55 GB | Добавлен: 6 д. назад | Торрент скачан:28 раз
Скачать  

15-04-2019 09:37 Бизнесмены Скачать торрент  

Бизнесмены / Biznesmeny Год выпуска: 2018
Страна: Казахстан
Жанр: драма, криминал
Продолжительность: 01:29:29
Перевод: Не требуется
Субтитры: отсутствуют

Режиссер: Акан Сатаев

rating

В ролях:

Аскар Ильясов, Айсулу Азимбаева, Шарип Серик, Расим Жубаев, Константин Крюков, Еркен Губашев, Санжар Мади, Дина Тасбулатова

Описание:

90-е годы прошлого века. Трое друзей, пытаясь наладить свою жизнь, сталкиваются с таким понятием, как бизнес. Однако бизнес - это всегда риск, и молодым предпринимателям придется пожертвовать многим ради успеха. Герои фильма становятся одними из первых, кто стоял у истоков рыночных отношений в Казахстане.

Качество: TS 720p
Формат: MKV

Видео: 3702 Кбит/с, 1280x536
Аудио: Русский, (AC3, 2 ch, 384 Кбит/с)
скриншот  скриншот  скриншот  

Общее
Уникальный идентификатор : 215173854209809262815603848066610583821 (0xA1E0FA1696E9E611962BDF6074BD590D)
Полное имя : D:\BizNesMeny.2O19.O.TS.72Op.mkv
Формат : Matroska
Версия формата : Version 2
Размер файла : 2,55 Гбайт
Продолжительность : 1 ч. 29 м.
Режим общего битрейта : Переменный
Общий поток : 4087 Кбит/сек
Дата кодирования : UTC 2019-04-13 14:48:21
Программа кодирования : mkvmerge v8.3.0 ('Over the Horizon') 64bit
Библиотека кодирования : libebml v1.3.1 + libmatroska v1.4.2

Видео
Идентификатор : 1
Формат : AVC
Формат/Информация : Advanced Video Codec
Профиль формата : High@L4.1
Параметр CABAC формата : Да
Параметр RefFrames формата : 4 кадра
Идентификатор кодека : V_MPEG4/ISO/AVC
Продолжительность : 1 ч. 29 м.
Вид битрейта : Переменный
Битрейт : 3702 Кбит/сек
Максимальный битрейт : 4000 Кбит/сек
Ширина : 1280 пикселей
Высота : 536 пикселей
Соотношение сторон : 2,40:1
Режим частоты кадров : Постоянный
Частота кадров : 23,976 (24000/1001) кадра/сек
Стандарт вещания : Component
Цветовое пространство : YUV
Субдискретизация насыщенности : 4:2:0
Битовая глубина : 8 бит
Тип развёртки : Прогрессивная
Бит/(Пиксели*Кадры) : 0.220
Размер потока : 2,26 Гбайт (89%)
Default : Да
Forced : Нет
Цветовой диапазон : Limited
Основные цвета : BT.709
Характеристики трансфера : BT.709
Коэффициенты матрицы : BT.709

Аудио
Идентификатор : 2
Формат : AC-3
Формат/Информация : Audio Coding 3
Расширение режима : CM (complete main)
Параметр Endianness формата : Big
Идентификатор кодека : A_AC3
Продолжительность : 1 ч. 29 м.
Вид битрейта : Постоянный
Битрейт : 384 Кбит/сек
Каналы : 2 канала
Расположение каналов : Front: L R
Частота : 48,0 КГц
Частота кадров : 31,250 кадров/сек (1536 spf)
Метод сжатия : С потерями
Размер потока : 246 Мбайт (9%)
Default : Да
Forced : Нет

piratbit.org



Скачать Бизнесмены через торрент https://d.radikal.ru/d26/1904/d2/b18cd73a867a.jpg Скачать фильм Бизнесмены через торрент бесплантно в хорошем качестве Описание: 90-е годы прошлого века. Трое друзей, пытаясь наладить свою жизнь, сталкиваются с таким понятием, как бизнес. Однако бизнес - это ... 10 10 3
Торрент: Зарегистрирован [2019-04-15 09:37] · скачан: 28 раз
Статус: T временная
Размер: 2.55 GB
Как cкачать? Как скачать Бизнесмены через торрент | qTorrent

% Раздел Тема Автор DL S | L
T Наши фильмы (мультфильмы) cо спонсором показа (Новинки AVI/MKV) [ 1.37 GB ] Бизнесмены / Biznesmeny [2018 TS] bober100 Скачать
6 | 0


>> Регистрируемся здесь <<






Отзывы и комментарии о схеме читаем и пишем здесь: ---> Отзывы и комментарии о схеме

Новые благодарочки в телеграм довольных пользователей:
скриншот   скриншот   скриншот   скриншот   скриншот

15-04-2019 11:41 Бизнесмены Скачать торрент  

смотрю казахи с темы 90-х не слезают. стабильно раз-два в год фильмец на эту тематику пилятpiratbit.org



15-04-2019 21:21 Бизнесмены Скачать торрент  

Эмм...Рейтинг на постере и в описании различается piratbit.org



    Дорогой пользователь! Огромная просьба, поблагодарите релизера, оцените раздачу и оставьте свои комментарий, если Вы скачали Бизнесмены через торрент бесплатно! Внесите свою лепту в развитие PiratBit!
    Комментировать посты могут только пользователи прошедшие не сложную регистрацию
    Показать сообщения:    

    Бизнесмены через торрент
    Скачать бесплатно Бизнесмены
    Бизнесмены скачать торрент
    Бизнесмены смотреть онлайн
    Cкачать фильм Бизнесмены бесплатно
    Бизнесмены скачать торрент в хорошем качестве
    Бизнесмены смотреть онлайн бесплатно в хорошем качестве


    Вы не можете начинать темы
    Вы не можете отвечать на сообщения
    Вы не можете редактировать свои сообщения
    Вы не можете удалять свои сообщения
    Вы не можете голосовать в опросах
    Вы не можете прикреплять файлы к сообщениям
    Вы можете скачивать файлы