Наша группа ВК в очередной раз забанена мы уходим в Телеграм, присоединяйтесь!!!

Лицензия

30

iTunes

Как приручить дракона 3

iTunes

1

1 сезон

Чернобыль

iTunes

Снегоуборщик

iTunes

Закатать в асфальт

8 сезон

Игра престолов

iTunes

Ральф против интернета Хит недели

ИГРА 18+

pack

ВАЖНО

!!Акция!!

Alien_RageХит недели

RePack

Resident Evil 21
pack

RePack

Metro:Exodus

!!Акция!!

Alien_Rage

RePack

fifa19

RePack

Assassins Creed: Odyssey

RePack

NEED FOR SPEED™ PAYBACK

3 сезон

9 сезон

Бесстыжие 9 сезон

Все сериалы

все сериалы на PB.wtf

RePack

FAR CRY 5
Ребята, катастрофически не хватает 2730р. для оплаты серверов за АПРЕЛЬ (всвязи с блокировками трафик упал в 3 раза), 1-2р., выручайте.
  

Игра престолов / Game of Thrones / Сезон: 8 / Серии: 1-6 из 6 (Алан Тейлор, Даниэль Минахан, Дэвид Наттер) [2019, Фэнтези, драма, приключения, экранизация, WEB-DLRip] [MVO] (TUMBLR Studio) piratbit.org

Игра престолов через торрент piratbit.org

Раздают: 3 [ 23 KB/s ] Качают: 16 [ 0 KB/s ]
Размер: 6.18 GB | Добавлен: 2 д. 5 ч. назад | Торрент скачан:37 раз
Скачать  

15-04-2019 20:02 Игра престолов Скачать торрент  

Игра престолов / Game of Thrones
Год выпуска: 2019
Страна: США
Жанр: Фэнтези, драма, приключения, экранизация
Продолжительность: ~00:55:00
Перевод: Профессиональный (многоголосый закадровый) *TUMBLR Studio*

Режиссёр: Алан Тейлор, Даниэль Минахан, Дэвид Наттер

В ролях: Лена Хиди, Питер Динклэйдж, Мишель Фэйрли, Эмилия Кларк, Кит Харингтон, Николай Костер-Валдау, Иэн Глен, Эйден Гиллен, Элфи Оуэн-Аллен, Мэйси Уильямс, Сибель Кекилли, Джеймс Космо, Стивен Диллэйн, Гетин Энтони, Гвендолин Кристи, Натали Дормер и др.

Описание: «Игра престолов» новый сериал HBO, основанный на бестселлерах Джорджа Р.Р. Мартина. В мире, где лето и зимы длятся десятилетиями, на кону корона Вестероса. Предательство, похоть, интриги и сверхъестественные силы сотрясают все четыре стороны Королевства — от плетущего интриги юга, диких восточных земель, до замерзшего севера и древней Стены, что защищает королевство от тьмы за нею. Короли и королевы, рыцари и мятежники, лжецы и благородные люди борются за Влacть в кровавом сражении за Железный Трон.

rating

Качество: WEB-DLRip
Формат: AVI
Видео: XviD, ~ 1800 Кбит/с, 720x400
Аудио: Russian, AC3, 48 kHz, 2 ch, 384 kbps
Субтитры: нет
General
Complete name : E:\Game.of.Thrones.S08.WEB-DLRip\Game.of.Thrones.S08E01.WEB-DLRip.TUMBLR.avi
Format : AVI
Format/Info : Audio Video Interleave
File size : 797 MiB
Duration : 55 min 30 s
Overall bit rate : 2 008 kb/s
Writing library : VirtualDub build 35491/release

Video
ID : 0
Format : MPEG-4 Visual
Format profile : Advanced Simple@L5
Format settings : BVOP2
Format settings, BVOP : 2
Format settings, QPel : No
Format settings, GMC : No warppoints
Format settings, Matrix : Default (H.263)
Muxing mode : Packed bitstream
Codec ID : XVID
Codec ID/Hint : XviD
Duration : 55 min 30 s
Bit rate : 1 536 kb/s
Width : 720 pixels
Height : 400 pixels
Display aspect ratio : 16:9
Frame rate : 23.976 (24000/1001) FPS
Color space : YUV
Chroma subsampling : 4:2:0
Bit depth : 8 bits
Scan type : Progressive
Compression mode : Lossy
Bits/(Pixel*Frame) : 0.222
Stream size : 610 MiB (76%)
Writing library : XviD 67

Audio
ID : 1
Format : AC-3
Format/Info : Audio Coding 3
Format settings, Endianness : Big
Codec ID : 2000
Duration : 55 min 30 s
Bit rate mode : Constant
Bit rate : 384 kb/s
Channel(s) : 6 channels
Channel positions : Front: L C R, Side: L R, LFE
Sampling rate : 48.0 kHz
Frame rate : 31.250 FPS (1536 SPF)
Bit depth : 16 bits
Compression mode : Lossy
Stream size : 152 MiB (19%)
Alignment : Aligned on interleaves
Service kind : Complete Main
скриншот  скриншот  скриншот  
Внимание! Раздача ведётся путём добавления новых серий; при каждом добавлении создаётся новый торрент. Чтобы начать докачку новой серии, пользователям необходимо сделать следующее:
(1) остановить скачивание,
(2) удалить старый торрент у себя из клиента (старые серии удалять не надо),
(3) скачать новый торрент и запустить его у себя в клиенте вместо старого, при этом указать клиенту путь в старую папку куда и должно происходить скачивание новых серий.

Ваш клиент при этом должен произвести хеширование (проверку) старой папки (если не производит сам - помогите ему сделать это), и будет докачивать только те серии которых у вас ещё нет. Старые серии при этом не удаляются, а продолжают раздаваться!

Eсли вы уже удалили старые серии, то предотвратить повторную закачку старых серий можно, отжав галочку в соответствующих местах при запуске нового торрента. По возможности, желательно не удалять старые серии как можно дольше чтобы релизёр не столько продолжал раздавать старые серии, а смог сконцентрироваться на новых.
piratbit.org



Скачать Игра престолов через торрент https://i110.fastpic.ru/big/2019/0415/d4/4bea7492948fea81bd624b8413ad90d4.jpg Скачать фильм Игра престолов через торрент бесплантно в хорошем качестве Описание: «Игра престолов» новый сериал HBO, основанный на бестселлерах Джорджа Р.Р. Мартина. В мире, где лето и зимы длятся десятилетиями, ... 9.8 10 12
Торрент: Зарегистрирован [2019-05-20 18:05] · скачан: 37 раз
Статус: √ проверено
Размер: 6.18 GB
Как cкачать? Как скачать Игра престолов через торрент | qTorrent

% Раздел Тема Автор DL S | L
Игра престолов [ 23.95 GB ] Игра престолов / Game of Thrones / Сезон: 8 / Серии: 1-6 из 6 [2019 WEB-DL 1080p] MVO [Amedia / Новамедиа] bober100 Скачать
62 | 146
Игра престолов [ 7.47 GB ] Игра Престолов / Game of Thrones / Сезон: 8 / Серии: 1-6 из 6 [2019 WEB-DLRip-AVC] MVO [Amedia] - ExKinoRay Enigma2010 Скачать
225 | 639
Игра престолов [ 26.6 GB ] Игра престолов / Game of Thrones / Сезон: 8 / Серии: 1-6 из 6 [2019 WEB-DL 1080p] 2x[MVO] killermax2013 Скачать
24 | 67
Игра престолов [ 7.79 GB ] Игра Престолов / Game of Thrones / Сезон: 8 / Серии: 1-6 из 6 [2019 WEB-DLRip-AVC] MVO [LostFilm] - ExKinoRay Enigma2010 Скачать
441 | 964
Игра престолов [ 20.7 GB ] Игра престолов / Game of Thrones / Сезон: 8 / Серии: 1-5 из 6 [2019 WEB-DL 1080p] MVO [LostFilm] bober100 Скачать
33 | 36
Игра престолов [ 16.34 GB ] Игра престолов / Game of Thrones / Сезон: 8 / Серии: 1-6 из 6 [2019 WEB-DL 720p] MVO [Octopus] bober100 Скачать
4 | 27
Игра престолов [ 5.06 GB ] Игра престолов / Game of Thrones / Сезон: 8 / Серии: 1-6 из 6 [2019 WEB-DLRip] MVO [Amedia / Новамедиа] bober100 Скачать
36 | 76


>> Регистрируемся здесь <<






Отзывы и комментарии о схеме читаем и пишем здесь: ---> Отзывы и комментарии о схеме

Новые благодарочки в телеграм довольных пользователей:
скриншот   скриншот   скриншот   скриншот   скриншот
    Дорогой пользователь! Огромная просьба, поблагодарите релизера, оцените раздачу и оставьте свои комментарий, если Вы скачали Игра престолов через торрент бесплатно! Внесите свою лепту в развитие PiratBit!
    Комментировать посты могут только пользователи прошедшие не сложную регистрацию
    Показать сообщения:    

    Игра престолов через торрент
    Скачать бесплатно Игра престолов
    Игра престолов скачать торрент
    Игра престолов смотреть онлайн
    Cкачать фильм Игра престолов бесплатно
    Игра престолов скачать торрент в хорошем качестве
    Игра престолов смотреть онлайн бесплатно в хорошем качестве


    Вы не можете начинать темы
    Вы не можете отвечать на сообщения
    Вы не можете редактировать свои сообщения
    Вы не можете удалять свои сообщения
    Вы не можете голосовать в опросах
    Вы не можете прикреплять файлы к сообщениям
    Вы можете скачивать файлы