Мега распродажа FORZA HORIZON 4 ULTIMATE+ВСЕ DLC+ОНЛАЙН всего за 499р. 349 руб. (супер цена). Внимание количество ограничено!!!

Лицензия

30

iTunes

мы

iTunes

1

1 сезон

Чернобыль

1 сезон

Ральф против интернета

MVO

Покемон. Детектив Пикачу

8 сезон

Игра престолов

iTunes

1+1

ИГРА 18+

pack

ВАЖНО

!!Акция!!

Alien_RageХит недели

RePack

Resident Evil 21
pack

RePack

Metro:Exodus

!!Акция!!

Alien_Rage

RePack

fifa19

RePack

Assassins Creed: Odyssey

RePack

NEED FOR SPEED™ PAYBACK

3 сезон

9 сезон

Бесстыжие 9 сезон

Все сериалы

все сериалы на PB.wtf

RePack

FAR CRY 5
Ребята, катастрофически не хватает 2730р. для оплаты серверов за МАЙ (всвязи с блокировками трафик упал в 3 раза), 1-2р., выручайте.
  

Ростов / Серии: 1-16 из 16 (Павел Дроздов) [2019 , Детектив, история, WEB-DL 1080p] piratbit.org

Ростов через торрент piratbit.org

Раздают: 2 [ 362 KB/s ]
Размер: 33.99 GB | Добавлен: 1 мес. 26 д. назад | Торрент скачан:88 раз
Скачать  

15-04-2019 21:34 Ростов Скачать торрент  

РостовГод выпуска: 2019
Страна: Россия
Жанр: Детектив, история
Продолжительность: ~ 00:50:00 серия
Субтитры: отсутствуют

Режиссер: Павел Дроздов



В ролях:

Алексей Барабаш, Артур Смольянинов, Александр Головин, Иван Охлобыстин, Софья Ардова, Константин Адаев, Юрий Круглов, Феликс Кроль, Юрий Ваксман, Никита Тарасов, Янина Мелехова, Андрей Иванов (IV), Александра Богданова, Дмитрий Лавров (III), Кристина Борейко

Описание:

В центре сюжета - Иван Козырев, «Козырь». В прошлом он – вор-рецидивист, промышлявший в Ростове. Но времена изменились – теперь Козырь принял новую Влacть и вернулся в город, чтобы «навести порядок». Его назначают начальником вновь сформированного отдела уголовного розыска. Руководство считает, что только Козырев может искоренить преступность в городе, ведь он изнутри знает воровской мир. Собрав крепких рабочих в свою команду, Козырь начинает борьбу с преступными группировками. Стихийно собранному отделу приходится учиться сыскному делу буквально «на ходу». Они встретятся лицом к лицу с самыми лютыми бандами, чтобы отстоять мир и спокойствие в городе Ростов.

Качество: WEB-DL 1080p
Формат: MKV

Видео: 1920х1080 (16:9), 25 fps, AVC MPEG-4 (x264), High@L4.0 ~ 6000 kbps avg, 0.152 bit/pixel
Аудио: 48 kHz, АС3, 2/0 (L,R), ~192.00 kbps avg
скриншот  скриншот  скриншот  скриншот  

Общее
Уникальный идентификатор : 195541580259206508213444934599678074763 (0x931BF0402F9D76AC82D6CAAA8BCB9F8B)
Полное имя : C:\Rostov.2019.WEB-DL.(1080p).ExKinoRay\Rostov.(01.seriya).2019.WEB-DL.(1080p).ExKinoRay.mkv
Формат : Matroska
Версия формата : Version 4
Размер файла : 2,20 Гбайт
Продолжительность : 51 м. 2 с.
Режим общего битрейта : Постоянный
Общий поток : 6175 Кбит/сек
Дата кодирования : UTC 2019-04-15 18:06:54
Программа кодирования : mkvmerge v7.8.0 ('River Man') 32bit built on Mar 27 2015 16:18:02
Библиотека кодирования : libebml v1.3.1 + libmatroska v1.4.2

Видео
Идентификатор : 1
Формат : AVC
Формат/Информация : Advanced Video Codec
Профиль формата : High@L4.1
Настройки формата : 2 Ref Frames
Параметр CABAC формата : Нет
Параметр RefFrames формата : 2 кадра
Идентификатор кодека : V_MPEG4/ISO/AVC
Продолжительность : 51 м. 2 с.
Вид битрейта : Постоянный
Битрейт : 6000 Кбит/сек
Ширина : 1920 пикселей
Высота : 1080 пикселей
Соотношение сторон : 16:9
Режим частоты кадров : Постоянный
Частота кадров : 25,000 кадров/сек
Стандарт вещания : PAL
Цветовое пространство : YUV
Субдискретизация насыщенности : 4:2:0
Битовая глубина : 8 бит
Тип развёртки : Прогрессивная
Бит/(Пиксели*Кадры) : 0.116
Размер потока : 2,09 Гбайт (95%)
Default : Да
Forced : Нет
Цветовой диапазон : Limited
Основные цвета : BT.709
Характеристики трансфера : BT.709
Коэффициенты матрицы : BT.709

Аудио
Идентификатор : 2
Формат : AC-3
Формат/Информация : Audio Coding 3
Коммерческое название : Dolby Digital
Идентификатор кодека : A_AC3
Продолжительность : 51 м. 2 с.
Вид битрейта : Постоянный
Битрейт : 192 Кбит/сек
Каналы : 2 канала
Channel layout : L R
Частота : 48,0 КГц
Частота кадров : 31,250 кадров/сек (1536 SPF)
Битовая глубина : 16 бит
Метод сжатия : С потерями
Размер потока : 70,1 Мбайт (3%)
Язык : Russian
ServiceKind/String : Complete Main
Default : Да
Forced : Нет

Когда раздача ведётся путём добавления новых серий, при каждом добавлении создётся новый торрент. Чтобы начать докачку новой серии, пользователям необходимо сделать следующее:
(1) остановить скачивание,
(2) удалить старый торрент у себя из клиента (старые серии удалять не надо),
(3) скачать новый торрент и запустить его у себя в клиенте вместо старого, при этом указать клиенту путь в старую папку, куда и должно происходить скачивание новых серий.
Ваш клиент при этом должен произвести хеширование (проверку) старой папки (если не производит сам - помогите ему сделать это), и будет докачивать только те серии, которых у вас ещё нет. Старые серии при этом не удаляются, а продолжают раздаваться!
Eсли вы уже удалили старые серии, то предотвратить повторную закачку старых серий можно, отжав галочку в соответсвующих местах при запуске нового торрента. По возможности, желательно не удалять старые серии как можно дольше, чтобы релизёр не столько продолжал раздавать старые серии, а смог сконцентрироваться на новых.
piratbit.org



Скачать Ростов через торрент https://d.radikal.ru/d13/1904/66/74b2852dfa0f.jpg Скачать фильм Ростов через торрент бесплантно в хорошем качестве Описание: В центре сюжета - Иван Козырев, «Козырь». В прошлом он – вор-рецидивист, промышлявший в Ростове. Но времена изменились – теперь ... 9.8 10 12
Торрент: Зарегистрирован [2019-04-20 05:28] · скачан: 88 раз
Статус: √ проверено
Размер: 33.99 GB
Как cкачать? Как скачать Ростов через торрент | qTorrent

% Раздел Тема Автор DL S | L
Наши сериалы [ 9.38 GB ] Ростов / Серии: 1-16 из 16 [2019 история SATRip] bober100 Скачать
3 | 0
Наши сериалы [ 8.71 GB ] Ростов / Серии: 1-16 из 16 [2019 история WEBRip] oleg8 Скачать
4 | 2
Наши сериалы [ 20.33 GB ] Ростов / Серии: 1-16 из 16 [2019 история WEBRip 720p] bober100 Скачать
3 | 0
Наши сериалы [ 12.08 GB ] Ростов / Серии: 1-16 из 16 [2019история WEBRip-AVC] aleksan55 Скачать
5 | 1


>> Регистрируемся здесь <<






Отзывы и комментарии о схеме читаем и пишем здесь: ---> Отзывы и комментарии о схеме

Новые благодарочки в телеграм довольных пользователей:
скриншот   скриншот   скриншот   скриншот   скриншот
    Дорогой пользователь! Огромная просьба, поблагодарите релизера, оцените раздачу и оставьте свои комментарий, если Вы скачали Ростов через торрент бесплатно! Внесите свою лепту в развитие PiratBit!
    Комментировать посты могут только пользователи прошедшие не сложную регистрацию
    Показать сообщения:    

    Ростов через торрент
    Скачать бесплатно Ростов
    Ростов скачать торрент
    Ростов смотреть онлайн
    Cкачать фильм Ростов бесплатно
    Ростов скачать торрент в хорошем качестве
    Ростов смотреть онлайн бесплатно в хорошем качестве


    Вы не можете начинать темы
    Вы не можете отвечать на сообщения
    Вы не можете редактировать свои сообщения
    Вы не можете удалять свои сообщения
    Вы не можете голосовать в опросах
    Вы не можете прикреплять файлы к сообщениям
    Вы можете скачивать файлы