Мега распродажа FORZA HORIZON 4 ULTIMATE+ВСЕ DLC+ОНЛАЙН всего за 499р. 349 руб. (супер цена). Внимание количество ограничено!!!

iTunes

1+1

iTunes

мы

iTunes

1

iTunes

Чернобыль

1 сезон

Ральф против интернета

Лицензия

ПШазам

Лицензия

Игра престолов

Лицензия

30
pack

ВАЖНО

!!Акция!!

Alien_RageХит недели

RePack

Resident Evil 21

ИГРА 18+

pack

RePack

Metro:Exodus

!!Акция!!

Alien_Rage

RePack

fifa19

RePack

Assassins Creed: Odyssey

RePack

NEED FOR SPEED™ PAYBACK

3 сезон

9 сезон

Бесстыжие 9 сезон

Все сериалы

все сериалы на PB.wtf

RePack

FAR CRY 5
Ребята, катастрофически не хватает 7730р. для оплаты серверов за ИЮЛЬ (всвязи с блокировками трафик упал в 3 раза), 1-2р., выручайте.
  

Стекло / Glass (М. Найт Шьямалан) [2019, фантастика, триллер, драма, детектив, BDRip 1080p] DUB [iTunes] piratbit.org

Стекло через торрент piratbit.org

Раздают: 16 [ 438 KB/s ]
Размер: 9.87 GB | Добавлен: 4 мес. 3 д. назад | Торрент скачан:1686 раз
Скачать  

15-04-2019 21:40 Стекло Скачать торрент  

Стекло / Glass Год выпуска: 2019
Страна: США
Жанр: фантастика, триллер, драма, детектив
Продолжительность: 02:09:01
Перевод: Дублированный | iTunes
Субтитры: Русские (Forced), английские

Режиссер: М. Найт Шьямалан

rating

В ролях:

Джеймс МакЭвой (Patricia / Dennis / Hedwig / The Beast / Barry / Heinrich / Jade / Ian / Mary Reynolds / Norma / Jalin / Kat / B.T. / Kevin Wendell Crumb / Mr. Pritchard / Felida / Luke / Goddard / Samuel / Polly), Брюс Уиллис (David Dunn), Сэмюэл Л. Джексон (Elijah Price), Аня Тейлор-Джой (Casey Cooke), Сара Полсон (Dr. Ellie Staple), Спенсер Трит Кларк (Joseph Dunn), Чарлэйн Вудард (Mrs. Price), Люк Кирби (Pierce), Адам Дэвид Томпсон (Daryl), М. Найт Шьямалан (Jai, Security Guard), Шеннон Дестини Райан (Cheerleading Girl), Диана Сильверс (Cheerleading Girl)
Описание:

Похититель с множественным расстройством личности и террорист-инвалид Мистер Стекло выходят на своих давних противников - травмированную девочку-подростка Кейси и стареющего супергероя Дэвида Данна.

Качество: BDRip 1080p
Формат: MKV

Видео: MPEG-4 AVC, 1920x804, 10.1 Mbit/s, 23.976 fps
Аудио#1: 48 kHz, AC3, 5.1, 384 Kbps | Дублированный | RUS |
Аудио#2: 48 kHz, AC3, 5.1, 448 Kbps | Оригинал | ENG |
скриншот  скриншот  скриншот  скриншот  скриншот  

General
Unique ID : 38771131841980281374797669065324834268 (0x1D2B0C6294B772016CBEDC910CB92DDC)
Complete name : D:Video111Glass.2019.D.BDRip.1080p.seleZen.mkv
Format : Matroska
Format version : Version 4
File size : 9.87 GiB
Duration : 2 h 9 min
Overall bit rate : 10.9 Mb/s
Movie name : Glass 2019 fron селезень
Encoded date : UTC 2019-04-15 18:16:47
Writing application : mkvmerge v32.0.0 ('Astral Progressions') 64-bit
Writing library : libebml v1.3.7 + libmatroska v1.5.0

Video
ID : 1
Format : AVC
Format/Info : Advanced Video Codec
Format profile : High@L4.1
Format settings : CABAC / 4 Ref Frames
Format settings, CABAC : Yes
Format settings, ReFrames : 4 frames
Codec ID : V_MPEG4/ISO/AVC
Duration : 2 h 9 min
Bit rate : 10.1 Mb/s
Width : 1 920 pixels
Height : 804 pixels
Display aspect ratio : 2.40:1
Frame rate mode : Constant
Frame rate : 23.976 (24000/1001) FPS
Color space : YUV
Chroma subsampling : 4:2:0
Bit depth : 8 bits
Scan type : Progressive
Bits/(Pixel*Frame) : 0.273
Stream size : 9.12 GiB (92%)
Title : CHD
Writing library : x264 core 157 r2867+150 7e91e0e t_mod_Custom_2 [8-bit@all X86_64]
Encoding settings : cabac=1 / ref=4 / deblock=1:-3:-3 / analyse=0x3:0x133 / me=umh / subme=10 / psy=1 / fade_compensate=0.00 / psy_rd=0.95:0.10 / mixed_ref=1 / me_range=48 / chroma_me=1 / trellis=2 / 8x8dct=1 / cqm=0 / deadzone=21,11 / fast_pskip=0 / chroma_qp_offset=-4 / threads=18 / lookahead_threads=3 / sliced_threads=0 / nr=0 / decimate=1 / interlaced=0 / bluray_compat=0 / constrained_intra=0 / fgo=0 / bframes=8 / b_pyramid=2 / b_adapt=2 / b_bias=0 / direct=3 / weightb=1 / open_gop=0 / weightp=2 / keyint=250 / keyint_min=23 / scenecut=40 / intra_refresh=0 / rc_lookahead=60 / rc=crf / mbtree=0 / crf=19.0000 / qcomp=0.70 / qpmin=0:0:0 / qpmax=69:69:69 / qpstep=4 / vbv_maxrate=35000 / vbv_bufsize=35000 / crf_max=0.0 / nal_hrd=none / filler=0 / ip_ratio=1.40 / pb_ratio=1.30 / aq=3:1.00 / aq-sensitivity=10.00 / aq-factor=1.00:1.00:1.00 / aq2=0 / aq3=2:[0.50:0.50]:[0.50:0.50]:[0.50:0.50]:[0.50:0.50] / aq3-sensitivity=10.00 / aq3-factor=[1.00:1.00]:[1.00:1.00]:[1.00:1.00] / aq3-boundary=192:64:24
Language : English
Default : Yes
Forced : No

Audio #1
ID : 2
Format : AC-3
Format/Info : Audio Coding 3
Commercial name : Dolby Digital
Codec ID : A_AC3
Duration : 2 h 9 min
Bit rate mode : Constant
Bit rate : 384 kb/s
Channel(s) : 6 channels
Channel layout : L R C LFE Ls Rs
Sampling rate : 48.0 kHz
Frame rate : 31.250 FPS (1536 SPF)
Bit depth : 16 bits
Compression mode : Lossy
Stream size : 355 MiB (4%)
Title : iTunes
Language : Russian
Service kind : Complete Main
Default : Yes
Forced : Yes

Audio #2
ID : 3
Format : AC-3
Format/Info : Audio Coding 3
Commercial name : Dolby Digital
Codec ID : A_AC3
Duration : 2 h 9 min
Bit rate mode : Constant
Bit rate : 448 kb/s
Channel(s) : 6 channels
Channel layout : L R C LFE Ls Rs
Sampling rate : 48.0 kHz
Frame rate : 31.250 FPS (1536 SPF)
Bit depth : 16 bits
Compression mode : Lossy
Stream size : 413 MiB (4%)
Title : Original
Language : English
Service kind : Complete Main
Default : No
Forced : No

Text #1
ID : 4
Format : UTF-8
Codec ID : S_TEXT/UTF8
Codec ID/Info : UTF-8 Plain Text
Duration : 1 h 49 min
Bit rate : 1 b/s
Count of elements : 28
Stream size : 1.60 KiB (0%)
Title : Forced
Language : Russian
Default : Yes
Forced : Yes

Text #2
ID : 5
Format : UTF-8
Codec ID : S_TEXT/UTF8
Codec ID/Info : UTF-8 Plain Text
Duration : 2 h 1 min
Bit rate : 43 b/s
Count of elements : 1201
Stream size : 38.8 KiB (0%)
Title : Full
Language : English
Default : No
Forced : No

Text #3
ID : 6
Format : UTF-8
Codec ID : S_TEXT/UTF8
Codec ID/Info : UTF-8 Plain Text
Duration : 2 h 2 min
Bit rate : 52 b/s
Count of elements : 1565
Stream size : 46.8 KiB (0%)
Title : SDH
Language : English
Default : No
Forced : No

Menu
00:00:00.000 : :绗?01 绔?
00:04:08.457 : :绗?02 绔?
00:09:36.367 : :绗?03 绔?
00:14:30.078 : :绗?04 绔?
00:19:49.897 : :绗?05 绔?
00:24:41.063 : :绗?06 绔?
00:29:45.826 : :绗?07 绔?
00:35:00.598 : :绗?08 绔?
00:39:07.595 : :绗?09 绔?
00:47:28.220 : :绗?10 绔?
00:57:16.224 : :绗?11 绔?
01:02:55.271 : :绗?12 绔?
01:09:26.829 : :绗?13 绔?
01:14:30.299 : :绗?14 绔?
01:21:43.774 : :绗?15 绔?
01:30:10.530 : :绗?16 绔?
01:38:15.515 : :绗?17 绔?
01:44:08.742 : :绗?18 绔?
01:54:07.215 : :绗?19 绔?
02:03:00.290 : :绗?20 绔?

piratbit.org



Скачать Стекло через торрент https://i109.fastpic.ru/big/2019/0409/af/19e4a4a317041eb88a85617578fc47af.jpg Скачать фильм Стекло через торрент бесплантно в хорошем качестве Описание: Похититель с множественным расстройством личности и террорист-инвалид Мистер Стекло выходят на своих давних противников - ... 9.7 10 34
Info! Золотая раздача, скачанное не засчитывается.
Торрент: Зарегистрирован [2019-04-15 21:40] · скачан: 1 686 раз
Статус: √ проверено
Размер: 9.87 GB
Как cкачать? Как скачать Стекло через торрент | qTorrent

% Раздел Тема Автор DL S | L
Фильмы 2019 [DVDrip, WEB-DLRip, HDrip] (DUB, MVO) [ 2.98 GB ] Стекло / Glass [2019 BDRip-AVC] MVO [HDRezka Studio] + AVO [Чадов Есарев] - ExKinoRay Enigma2010 Скачать
29 | 1
Фильмы (HD 720p, 1080p) (48-60 fps) [ 3.91 GB ] Стекло / Glass [2019 BDRip - HEVC 1080p 12 bit 60 FPS] dd2d3 Скачать
3 | 0
Фильмы 2019 [DVDrip, WEB-DLRip, HDrip] (DUB, MVO) [ 2.13 GB ] Стекло / Glass [2019 BDRip] - Twi7ter Скачать
46 | 0
Фильмы (HD 720p, 1080p) (48-60 fps) [ 26.55 GB ] Стекло / Glass [2019 BDRip 1080p 60 fps] sheker187 Скачать
2 | 1
Ultra HD (UHD: 2K, 4K, 8K) — видео сверхвысокой чёткости [ 86.39 GB ] Стекло / Glass [2019 UHD Blu-ray 2160p] sheker187 Скачать
1 | 0
Ultra HD (UHD: 2K, 4K, 8K) — видео сверхвысокой чёткости [ 29.48 GB ] Стекло / Glass [2019 UHD BDRip 2160p] [SDR] DUB + MVO [HDRezka Studio] sheker187 Скачать
3 | 0
Ultra HD (UHD: 2K, 4K, 8K) — видео сверхвысокой чёткости [ 17.29 GB ] Стекло / Glass [2019 UHD BDRip 2160p] DUB + MVO [HDRezka Studio] sheker187 Скачать
1 | 0


>> Регистрируемся здесь <<






Отзывы и комментарии о схеме читаем и пишем здесь: ---> Отзывы и комментарии о схеме

Новые благодарочки в телеграм довольных пользователей:
скриншот   скриншот   скриншот   скриншот   скриншот

16-04-2019 16:46 Стекло Скачать торрент  

спасибо ждал ! забираю......piratbit.org



19-04-2019 18:28 Стекло Скачать торрент  

llkonstantinll писал(а):

спасибо ждал ! забираю......

Тоже самое ждал, понравились первые две части"Неуязвимый и Сплит".piratbit.org



    Дорогой пользователь! Огромная просьба, поблагодарите релизера, оцените раздачу и оставьте свои комментарий, если Вы скачали Стекло через торрент бесплатно! Внесите свою лепту в развитие PiratBit!
    Комментировать посты могут только пользователи прошедшие не сложную регистрацию
    Показать сообщения:    

    Стекло через торрент
    Скачать бесплатно Стекло
    Стекло скачать торрент
    Стекло смотреть онлайн
    Cкачать фильм Стекло бесплатно
    Стекло скачать торрент в хорошем качестве
    Стекло смотреть онлайн бесплатно в хорошем качестве


    Вы не можете начинать темы
    Вы не можете отвечать на сообщения
    Вы не можете редактировать свои сообщения
    Вы не можете удалять свои сообщения
    Вы не можете голосовать в опросах
    Вы не можете прикреплять файлы к сообщениям
    Вы можете скачивать файлы