Мега распродажа FORZA HORIZON 4 ULTIMATE+ВСЕ DLC+ОНЛАЙН всего за 499р. 349 руб. (супер цена). Внимание количество ограничено!!!

Лицензия

30

iTunes

мы

iTunes

1

1 сезон

Чернобыль

iTunes

1+1

iTunes

Закатать в асфальт

8 сезон

Игра престолов

1 сезон

Ральф против интернета

ИГРА 18+

pack

ВАЖНО

!!Акция!!

Alien_RageХит недели

RePack

Resident Evil 21
pack

RePack

Metro:Exodus

!!Акция!!

Alien_Rage

RePack

fifa19

RePack

Assassins Creed: Odyssey

RePack

NEED FOR SPEED™ PAYBACK

3 сезон

9 сезон

Бесстыжие 9 сезон

Все сериалы

все сериалы на PB.wtf

RePack

FAR CRY 5
Ребята, катастрофически не хватает 2730р. для оплаты серверов за АПРЕЛЬ (всвязи с блокировками трафик упал в 3 раза), 1-2р., выручайте.
  

Стекло / Glass (М. Найт Шьямалан) [2019, фантастика, триллер, драма, детектив, UHD BDRemux 2160p] DUB [iTunes] piratbit.org

Стекло через торрент piratbit.org

Раздают: 2 [ 446 KB/s ]
Размер: 63.73 GB | Добавлен: 1 мес. 10 д. назад | Торрент скачан:47 раз
Скачать  

15-04-2019 21:57 Стекло Скачать торрент  

Стекло / Glass Год выпуска: 2019
Страна: США
Жанр: фантастика, триллер, драма, детектив
Продолжительность: 02:09:01
Перевод: Дублированный | iTunes
Субтитры: Русские (Forced), английские

Режиссер: М. Найт Шьямалан

rating

В ролях:

Джеймс МакЭвой (Patricia / Dennis / Hedwig / The Beast / Barry / Heinrich / Jade / Ian / Mary Reynolds / Norma / Jalin / Kat / B.T. / Kevin Wendell Crumb / Mr. Pritchard / Felida / Luke / Goddard / Samuel / Polly), Брюс Уиллис (David Dunn), Сэмюэл Л. Джексон (Elijah Price), Аня Тейлор-Джой (Casey Cooke), Сара Полсон (Dr. Ellie Staple), Спенсер Трит Кларк (Joseph Dunn), Чарлэйн Вудард (Mrs. Price), Люк Кирби (Pierce), Адам Дэвид Томпсон (Daryl), М. Найт Шьямалан (Jai, Security Guard), Шеннон Дестини Райан (Cheerleading Girl), Диана Сильверс (Cheerleading Girl)
Описание:

Похититель с множественным расстройством личности и террорист-инвалид Мистер Стекло выходят на своих давних противников - травмированную девочку-подростка Кейси и стареющего супергероя Дэвида Данна.

Качество: UHD BDRemux 2160p
Формат: MKV

Видео: MPEG-H HEVC HDR Video, 3840x2160, 65700 Kbit/s, 23.976 fps
Аудио#1: 48 kHz, AC3, 5.1, 384 Kbps | Дублированный | RUS |
Аудио#2: 48 kHz, TrueHD, 7.1, 4109 Kbps | Оригинал | ENG |
Аудио#3: 48 kHz, AC3, 5.1, 448 Kbps | Оригинал | ENG |
скриншот  скриншот  скриншот  скриншот  скриншот  

General
Unique ID : 309856403993740582339645695830975744102 (0xE91C2C357D0CBEE71674B356C36E8866)
Complete name : D:Video111Glass.2019.D.BDREMUX.2160p.HDR.seleZen.mkv
Format : Matroska
Format version : Version 4
File size : 63.7 GiB
Duration : 2 h 9 min
Overall bit rate mode : Variable
Overall bit rate : 70.7 Mb/s
Movie name : Glass 2019 4K from селезень
Encoded date : UTC 2019-04-15 18:52:30
Writing application : mkvmerge v32.0.0 ('Astral Progressions') 64-bit
Writing library : libebml v1.3.7 + libmatroska v1.5.0

Video
ID : 1
Format : HEVC
Format/Info : High Efficiency Video Coding
Format profile : Main 10@L5.1@High
HDR format : SMPTE ST 2086, HDR10 compatible
Codec ID : V_MPEGH/ISO/HEVC
Duration : 2 h 9 min
Bit rate : 65.7 Mb/s
Width : 3 840 pixels
Height : 2 160 pixels
Display aspect ratio : 16:9
Frame rate mode : Constant
Frame rate : 23.976 (24000/1001) FPS
Color space : YUV
Chroma subsampling : 4:2:0 (Type 2)
Bit depth : 10 bits
Bits/(Pixel*Frame) : 0.330
Stream size : 59.2 GiB (93%)
Language : English
Default : Yes
Forced : No
Color range : Limited
Color primaries : BT.2020
Transfer characteristics : PQ
Matrix coefficients : BT.2020 non-constant
Mastering display color pri : Display P3
Mastering display luminance : min: 0.0050 cd/m2, max: 1000 cd/m2
Maximum Content Light Level : 457 cd/m2
Maximum Frame-Average Light : 182 cd/m2

Audio #1
ID : 2
Format : AC-3
Format/Info : Audio Coding 3
Commercial name : Dolby Digital
Codec ID : A_AC3
Duration : 2 h 9 min
Bit rate mode : Constant
Bit rate : 384 kb/s
Channel(s) : 6 channels
Channel layout : L R C LFE Ls Rs
Sampling rate : 48.0 kHz
Frame rate : 31.250 FPS (1536 SPF)
Bit depth : 16 bits
Compression mode : Lossy
Stream size : 355 MiB (1%)
Title : iTunes
Language : Russian
Service kind : Complete Main
Default : Yes
Forced : Yes

Audio #2
ID : 3
Format : MLP FBA 16-ch
Format/Info : Meridian Lossless Packing FBA with 16-channel presentation
Commercial name : Dolby TrueHD with Dolby Atmos
Codec ID : A_TRUEHD
Duration : 2 h 9 min
Bit rate mode : Variable
Bit rate : 4 109 kb/s
Maximum bit rate : 7 326 kb/s
Channel(s) : 8 channels
Channel layout : L R C LFE Ls Rs Lb Rb
Sampling rate : 48.0 kHz
Frame rate : 1 200.000 FPS (40 SPF)
Compression mode : Lossless
Stream size : 3.70 GiB (6%)
Title : Original
Language : English
Default : No
Forced : No
Number of dynamic objects : 11
Bed channel count : 1 channel
Bed channel configuration : LFE

Audio #3
ID : 4
Format : AC-3
Format/Info : Audio Coding 3
Commercial name : Dolby Digital
Codec ID : A_AC3
Duration : 2 h 9 min
Bit rate mode : Constant
Bit rate : 448 kb/s
Channel(s) : 6 channels
Channel layout : L R C LFE Ls Rs
Sampling rate : 48.0 kHz
Frame rate : 31.250 FPS (1536 SPF)
Bit depth : 16 bits
Compression mode : Lossy
Stream size : 413 MiB (1%)
Language : English
Service kind : Complete Main
Default : No
Forced : No

Text #1
ID : 5
Format : UTF-8
Codec ID : S_TEXT/UTF8
Codec ID/Info : UTF-8 Plain Text
Duration : 1 h 49 min
Bit rate : 1 b/s
Count of elements : 28
Stream size : 1.60 KiB (0%)
Title : Forced
Language : Russian
Default : Yes
Forced : Yes

Text #2
ID : 6
Format : UTF-8
Codec ID : S_TEXT/UTF8
Codec ID/Info : UTF-8 Plain Text
Duration : 2 h 1 min
Bit rate : 43 b/s
Count of elements : 1201
Stream size : 38.8 KiB (0%)
Title : Full
Language : English
Default : No
Forced : No

Text #3
ID : 7
Format : UTF-8
Codec ID : S_TEXT/UTF8
Codec ID/Info : UTF-8 Plain Text
Duration : 2 h 2 min
Bit rate : 52 b/s
Count of elements : 1565
Stream size : 46.8 KiB (0%)
Title : SDH
Language : English
Default : No
Forced : No

Menu
00:00:00.000 : en:Chapter 01
00:04:08.457 : en:Chapter 02
00:09:36.367 : en:Chapter 03
00:14:30.078 : en:Chapter 04
00:19:49.897 : en:Chapter 05
00:24:41.063 : en:Chapter 06
00:29:45.826 : en:Chapter 07
00:35:00.598 : en:Chapter 08
00:39:07.595 : en:Chapter 09
00:47:28.220 : en:Chapter 10
00:57:16.224 : en:Chapter 11
01:02:55.271 : en:Chapter 12
01:09:26.829 : en:Chapter 13
01:14:30.299 : en:Chapter 14
01:21:43.774 : en:Chapter 15
01:30:10.530 : en:Chapter 16
01:38:15.515 : en:Chapter 17
01:44:08.742 : en:Chapter 18
01:54:07.215 : en:Chapter 19
02:03:00.290 : en:Chapter 20

piratbit.org



Скачать Стекло через торрент http://img14.lostpic.net/2019/04/10/5cf5bf9b49c7cb5bfd8b8dcbc1ffafcc.jpg Скачать фильм Стекло через торрент бесплантно в хорошем качестве Описание: Похититель с множественным расстройством личности и террорист-инвалид Мистер Стекло выходят на своих давних противников - ... 10 10 3
Торрент: Зарегистрирован [2019-04-15 21:57] · скачан: 47 раз
Статус: √ проверено
Размер: 63.73 GB
Как cкачать? Как скачать Стекло через торрент | qTorrent

% Раздел Тема Автор DL S | L
Ultra HD (UHD: 2K, 4K, 8K) — видео сверхвысокой чёткости [ 86.39 GB ] Стекло / Glass [2019 UHD Blu-ray 2160p] sheker187 Скачать
4 | 0
T Фильмы [HD 720p, 1080p] (Хороший звук DUB, MVO) [ 13.7 GB ] Стекло / Glass [2019 BDRip 1080p] MVO [HDRezka Studio] +DUB bober100 Скачать
16 | 1
Фильмы 2019 [DVDrip, WEB-DLRip, HDrip] (DUB, MVO) [ 2.13 GB ] Стекло / Glass [2019 BDRip] - Twi7ter Скачать
152 | 1
Ultra HD (UHD: 2K, 4K, 8K) — видео сверхвысокой чёткости [ 29.48 GB ] Стекло / Glass [2019 UHD BDRip 2160p] [SDR] DUB + MVO [HDRezka Studio] sheker187 Скачать
5 | 0
Ultra HD (UHD: 2K, 4K, 8K) — видео сверхвысокой чёткости [ 17.29 GB ] Стекло / Glass [2019 UHD BDRip 2160p] DUB + MVO [HDRezka Studio] sheker187 Скачать
18 | 1
Фильмы [HD 720p, 1080p] (Хороший звук DUB, MVO) [ 9.87 GB ] Стекло / Glass [2019 BDRip 1080p] bober100 Скачать
92 | 0
Фильмы 2019 [DVDrip, WEB-DLRip, HDrip] (DUB, MVO) [ 1.46 GB ] Стекло / Glass [2019 BDRip] - Twi7ter Скачать
82 | 1


>> Регистрируемся здесь <<






Отзывы и комментарии о схеме читаем и пишем здесь: ---> Отзывы и комментарии о схеме

Новые благодарочки в телеграм довольных пользователей:
скриншот   скриншот   скриншот   скриншот   скриншот
    Дорогой пользователь! Огромная просьба, поблагодарите релизера, оцените раздачу и оставьте свои комментарий, если Вы скачали Стекло через торрент бесплатно! Внесите свою лепту в развитие PiratBit!
    Комментировать посты могут только пользователи прошедшие не сложную регистрацию
    Показать сообщения:    

    Стекло через торрент
    Скачать бесплатно Стекло
    Стекло скачать торрент
    Стекло смотреть онлайн
    Cкачать фильм Стекло бесплатно
    Стекло скачать торрент в хорошем качестве
    Стекло смотреть онлайн бесплатно в хорошем качестве


    Вы не можете начинать темы
    Вы не можете отвечать на сообщения
    Вы не можете редактировать свои сообщения
    Вы не можете удалять свои сообщения
    Вы не можете голосовать в опросах
    Вы не можете прикреплять файлы к сообщениям
    Вы можете скачивать файлы