ВНИМАНИЕ!!! Роскомнадзор заблокировал piratbit.org в РФ навсегда, просьба установить наш плагин который откроет доступ из РФ, для Хром, Ябраузер, Опера -> Mozilla FireFox и перейти на pb.wtf. о плагине

Лицензия

30

MVO

Как приручить дракона 3

11 сезон

1

1 сезон

гринч

iTunes

Стекло

iTunes

Клаустрофобы

8 сезон

Игра престолов

iTunes

Ральф против интернета Хит недели

ИГРА 18+

pack

ВАЖНО

!!Акция!!

Alien_RageХит недели

RePack

Resident Evil 21
pack

RePack

Metro:Exodus

!!Акция!!

Alien_Rage

RePack

fifa19

RePack

Assassins Creed: Odyssey

RePack

NEED FOR SPEED™ PAYBACK

3 сезон

9 сезон

Бесстыжие 9 сезон

Все сериалы

все сериалы на PB.wtf

RePack

FAR CRY 5
Ребята, критически не успеваем дособрать 3200р. для оплаты серверов за Март (всвязи с блокировками трафик упал в 3 раза), 1-2р., выручайте.
  

Игра Престолов / Game of Thrones / Сезон: 8 / Серии: 1 из 6 (Алан Тейлор, Даниэль Минахан, Дэвид Наттер) [2019, Фэнтези, драма, приключения, WEB-DL 1080p] MVO [AMS] piratbit.org

Игра Престолов через торрент piratbit.org

Раздают: 29 [ 130 KB/s ]
Размер: 3.07 GB | Добавлен: 5 д. назад | Торрент скачан:177 раз
Скачать  

15-04-2019 22:30 Игра Престолов Скачать торрент  

═╬ Игра престолов / Game of Thrones ╬═ Год выпуска: 2019
Страна: США
Жанр: Фэнтези, драма, приключения, экранизация
Продолжительность: ~ 01:00:00
Перевод: Профессиональный (многоголосый закадровый) | AMS
Субтитры: Русские, Английские (Softsub SRT)

Режиссёр: Алан Тейлор, Даниэль Минахан, Дэвид Наттер



В ролях:

Лена Хиди, Питер Динклэйдж, Мишель Фэйрли, Эмилия Кларк, Кит Харингтон, Николай Костер-Валдау, Иэн Глен, Эйден Гиллен, Элфи Оуэн-Аллен, Мэйси Уильямс, Сибель Кекилли, Джеймс Космо, Стивен Диллэйн, Гетин Энтони, Гвендолин Кристи, Натали Дормер и другие

Описание:

«Игра престолов» новый сериал HBO, основанный на бестселлерах Джорджа Р.Р. Мартина. В мире, где лето и зимы длятся десятилетиями, на кону корона Вестероса. Предательство, похоть, интриги и сверхъестественные силы сотрясают все четыре стороны Королевства — от плетущего интриги юга, диких восточных земель, до замерзшего севера и древней Стены, что защищает королевство от тьмы за нею. Короли и королевы, рыцари и мятежники, лжецы и благородные люди борются за Влacть в кровавом сражении за Железный Трон.

Качество: WEB-DL 1080p
Контейнер: MKV

Видео: AVC, 1920x1080 (16:9), 23.976 fps, ~ 6596-10000 кбит/с (переменный), 0.133-0.200 bit/pixel
Аудио 1: Русский, AC3, 48 KHz, 6 channels, 640 kbps
Аудио 2: Английский, AC3, 48 KHz, 6 channels, 640 kbps


Реклама: Присутствует звуковая (два раза: в начале и конце по 12 сек)
General
Unique ID : 232629573833266850395193379375938612685 (0xAF02D3831FE7739B91B378307A412DCD)
Complete name : /Volumes/Seagate Expansion Drive 2/AMSNW/Game.of.Thrones.S08.1080p.WEB-DL.AMS/Game.of.Thrones.S08E01.1080p.WEB-DL.AMS.mkv
Format : Matroska
Format version : Version 4 / Version 2
File size : 3.07 GiB
Duration : 55mn 47s
Overall bit rate : 7 873 Kbps
Movie name : Game of Thrones 8x01 - MVO AMS
Encoded date : UTC 2019-04-15 20:30:02
Writing application : mkvmerge v8.2.0 ('World of Adventure') 64bit
Writing library : libebml v1.3.1 + libmatroska v1.4.2

Video
ID : 1
Format : AVC
Format/Info : Advanced Video Codec
Format profile : High@L4
Format settings, CABAC : Yes
Format settings, ReFrames : 4 frames
Codec ID : V_MPEG4/ISO/AVC
Duration : 55mn 45s
Bit rate mode : Constant
Bit rate : 6 596 Kbps
Nominal bit rate : 10 000 Kbps
Width : 1 920 pixels
Height : 1 080 pixels
Display aspect ratio : 16:9
Frame rate mode : Constant
Frame rate : 23.976 (24000/1001) fps
Color space : YUV
Chroma subsampling : 4:2:0
Bit depth : 8 bits
Scan type : Progressive
Bits/(Pixel*Frame) : 0.133
Stream size : 2.57 GiB (84%)
Title : Game of Thrones 8x01 - MVO AMS
Language : English
Default : Yes
Forced : No
Color range : Limited
Color primaries : BT.709
Transfer characteristics : BT.709
Matrix coefficients : BT.709

Audio #1
ID : 2
Format : AC-3
Format/Info : Audio Coding 3
Mode extension : CM (complete main)
Format settings, Endianness : Big
Codec ID : A_AC3
Duration : 55mn 45s
Bit rate mode : Constant
Bit rate : 640 Kbps
Channel(s) : 6 channels
Channel positions : Front: L C R, Side: L R, LFE
Sampling rate : 48.0 KHz
Frame rate : 31.250 fps (1536 spf)
Compression mode : Lossy
Stream size : 255 MiB (8%)
Title : MVO AMS
Language : Russian
Default : Yes
Forced : No

Audio #2
ID : 3
Format : E-AC-3
Format/Info : Audio Coding 3
Format settings, Endianness : Big
Codec ID : A_EAC3
Duration : 55mn 45s
Bit rate mode : Constant
Bit rate : 640 Kbps
Channel(s) : 6 channels
Channel positions : Front: L C R, Side: L R, LFE
Sampling rate : 48.0 KHz
Frame rate : 187.500 fps (256 spf)
Compression mode : Lossy
Delay relative to video : 8ms
Stream size : 255 MiB (8%)
Title : Original
Language : English
Default : No
Forced : No

Text #1
ID : 4
Format : UTF-8
Codec ID : S_TEXT/UTF8
Codec ID/Info : UTF-8 Plain Text
Duration : 52mn 55s
Bit rate : 58 bps
Count of elements : 463
Stream size : 22.5 KiB (0%)
Title : Rus-Subs
Language : Russian
Default : No
Forced : No

Text #2
ID : 5
Format : UTF-8
Codec ID : S_TEXT/UTF8
Codec ID/Info : UTF-8 Plain Text
Duration : 55mn 41s
Bit rate : 45 bps
Count of elements : 665
Stream size : 18.4 KiB (0%)
Title : Eng-Subs
Language : English
Default : No
Forced : No

Menu
00:00:00.000 : en:Ratings
00:00:03.944 : en:Previously On
00:01:59.944 : en:Studio Logo
00:02:05.944 : en:Opening Credits
00:03:52.944 : en:Arrival in Winterfell
00:09:46.944 : en:Fight together or die
00:12:53.944 : en:Sansa sees through the lies
00:15:36.944 : en:A tearful reunion
00:17:45.944 : en:A queen must be earned
00:22:40.944 : en:Cersei asks a favor of Bronn
00:25:25.944 : en:What is dead may never die
00:29:24.944 : en:Hold on to whatever you can
00:36:41.944 : en:A forge for dragonglass
00:39:11.944 : en:Sansa is frustrated with Jon's choice
00:41:03.944 : en:The head of House Tarly
00:44:32.944 : en:It's time for Jon to know the truth
00:48:40.944 : en:A message from the Night King
00:52:28.944 : en:An unexpected visitor
00:53:43.944 : en:End Credits
00:55:03.944 : en:Next Time
00:55:40.944 : en:Inside Game of Thrones
Внимание! Раздача ведётся путём добавления новых серий; при каждом добавлении создаётся новый торрент. Чтобы начать докачку новой серии, пользователям необходимо сделать следующее:

1) остановить скачивание,
2) удалить старый торрент у себя из клиента (старые серии удалять не надо),
3) скачать новый торрент и запустить его у себя в клиенте вместо старого, при этом указать клиенту путь в старую папку куда и должно происходить скачивание новых серий.

Ваш клиент при этом должен произвести хеширование (проверку) старой папки (если не производит сам - помогите ему сделать это), и будет докачивать только те серии которых у вас ещё нет. Старые серии при этом не удаляются, а продолжают раздаваться!

Eсли вы уже удалили старые серии, то предотвратить повторную закачку старых серий можно, отжав галочку в соответствующих местах при запуске нового торрента. По возможности, желательно не удалять старые серии как можно дольше чтобы релизёр не столько продолжал раздавать старые серии, а смог сконцентрироваться на новых.
piratbit.org



Скачать Игра Престолов через торрент https://www.thetvdb.com/banners/graphical/5c8c227dbd218.jpg Скачать фильм Игра Престолов через торрент бесплантно в хорошем качестве Описание:«Игра престолов» новый сериал HBO, основанный на бестселлерах Джорджа Р.Р. Мартина. В мире, где лето и зимы длятся десятилетиями, ... 10 10 13
Info! Золотая раздача, скачанное не засчитывается.
Торрент: Зарегистрирован [2019-04-15 22:30] · скачан: 177 раз
Статус: √ проверено
Размер: 3.07 GB
Как cкачать? Как скачать Игра Престолов через торрент | qTorrent

% Раздел Тема Автор DL S | L
Игра престолов [ 3.07 GB ] Игра престолов / Game of Thrones / Сезон: 8 / Серии: 1- из 6 [2019 WEB-DL 1080p] MVO [LostFilm] bober100 Скачать
133 | 3
Игра престолов [ 1.28 GB ] Игра престолов / Game of Thrones / Сезон: 8 / Серии: 1- из 6 [2019 WEBRip 720p] MVO [HDRezka Studio] bober100 Скачать
33 | 5
Игра престолов [ 2.55 GB ] Игра престолов / Game of Thrones / Сезон: 8 / Серии: 1- из 6 [2019 WEBRip 1080p] MVO [HDRezka Studio] bober100 Скачать
28 | 7
Игра престолов [ 1.02 GB ] Игра Престолов / Game of Thrones / Сезон: 8 / Серии: 1 из 6 [2019 WEB-DLRip-AVC] MVO [LostFilm] - ExKinoRay Enigma2010 Скачать
923 | 67
Игра престолов [ 1.02 GB ] Игра Престолов / Game of Thrones / Сезон: 8 / Серии: 1 из 6 [2019 WEB-DLRip-AVC] MVO [Amedia] - ExKinoRay Enigma2010 Скачать
94 | 2
Игра престолов [ 2.97 GB ] Игра престолов / Game of Thrones / Сезон: 8 / Серии: 1 из 6 [2019 WEB-DL 1080p] MVO [AlexFilm] bober100 Скачать
38 | 0
Фильмы с украинским озвучиванием [ 3.03 GB ] Игра престолов / Game of Thrones / Сезон: 8 / Серии: 1 из 6 [2019 экранизация WEBRip 1080p] [Ukr MVO] killermax2013 Скачать
10 | 3


>> Регистрируемся здесь <<






Отзывы и комментарии о схеме читаем и пишем здесь: ---> Отзывы и комментарии о схеме

Новые благодарочки в телеграм довольных пользователей:
скриншот   скриншот   скриншот   скриншот   скриншот
    Дорогой пользователь! Огромная просьба, поблагодарите релизера, оцените раздачу и оставьте свои комментарий, если Вы скачали Игра Престолов через торрент бесплатно! Внесите свою лепту в развитие PiratBit!
    Комментировать посты могут только пользователи прошедшие не сложную регистрацию
    Показать сообщения:    

    Игра Престолов через торрент
    Скачать бесплатно Игра Престолов
    Игра Престолов скачать торрент
    Игра Престолов смотреть онлайн
    Cкачать фильм Игра Престолов бесплатно
    Игра Престолов скачать торрент в хорошем качестве
    Игра Престолов смотреть онлайн бесплатно в хорошем качестве


    Вы не можете начинать темы
    Вы не можете отвечать на сообщения
    Вы не можете редактировать свои сообщения
    Вы не можете удалять свои сообщения
    Вы не можете голосовать в опросах
    Вы не можете прикреплять файлы к сообщениям
    Вы можете скачивать файлы