ВНИМАНИЕ!!! Роскомнадзор заблокировал piratbit.org в РФ навсегда, просьба установить наш плагин который откроет доступ из РФ, для Хром, Ябраузер, Опера -> Mozilla FireFox и перейти на pb.wtf. о плагине

Лицензия

30

MVO

Как приручить дракона 3

11 сезон

1

1 сезон

гринч

iTunes

Стекло

iTunes

Клаустрофобы

8 сезон

Игра престолов

iTunes

Ральф против интернета Хит недели

ИГРА 18+

pack

ВАЖНО

!!Акция!!

Alien_RageХит недели

RePack

Resident Evil 21
pack

RePack

Metro:Exodus

!!Акция!!

Alien_Rage

RePack

fifa19

RePack

Assassins Creed: Odyssey

RePack

NEED FOR SPEED™ PAYBACK

3 сезон

9 сезон

Бесстыжие 9 сезон

Все сериалы

все сериалы на PB.wtf

RePack

FAR CRY 5
Ребята, критически не успеваем дособрать 3200р. для оплаты серверов за Март (всвязи с блокировками трафик упал в 3 раза), 1-2р., выручайте.
  

Голодные Z / Les affames / Ravenous (Робин Обер) [2017, ужасы, драма, BDRip-AVC] DUB [iTunes] piratbit.org

Голодные Z через торрент piratbit.org

Раздают: 4 [ 0 KB/s ]
Размер: 1.54 GB | Добавлен: 5 д. назад | Торрент скачан:56 раз
Скачать  

15-04-2019 23:12 Голодные Z Скачать торрент  

Голодные Z / Les affames / Ravenous«В первую очередь, зомби придут к твоим близким...»
Год выпуска: 2017
Страна: Канада
Жанр: ужасы, драма
Продолжительность: 01:43:00
Перевод: Дублированный | iTunes
Субтитры: отсутствуют

Режиссер: Робин Обер

rating

В ролях:

Марк-Андре Гронден, Монья Шокри, Шарлотта Сен-Мартен, Мишлен Ланкто, Мари-Джинетт Гуай, Бриджитт Пупар, Эдуар Трамбле-Гренье, Люк Пру, Дидье Люсьен, Робер Бруйетт

Описание:

В небольшой деревушке неподалеку от Квебека все изменилось. Местные жители уже не те, что раньше: их тела разлагаются, а сами они стали интересоваться исключительно свежей плотью.

Качество: BDRip-AVC
Формат: MKV

Видео: 960x576 (5:3), 24.000 fps, x264 ~1 758 kbps avg, 0.132 bit/pixel
Аудио#1: 48 kHz, AC3 Dolby Digital, 3/2 (L,C,R,l,r) + LFE ch, ~384.00 kbps avg | RUS (iTunes)
Аудио#2: 48 kHz, AC3 Dolby Digital, 3/2 (L,C,R,l,r) + LFE ch, ~448.00 kbps avg | ENG
скриншот  скриншот  скриншот  скриншот  скриншот  

Общее
Уникальный идентификатор : 155244647288024235935464885298930312460 (0x74CB080FD8769D3434DE438EF326E50C)
Полное имя : F:OlLanDGroupLes.Affames.2017.BDRip(AVC).OlLanDGroup.mkv
Формат : Matroska
Версия формата : Version 4 / Version 2
Размер файла : 1,54 Гбайт
Продолжительность : 1 ч. 43 м.
Общий поток : 2144 Кбит/сек
Название фильма : Les.Affames.2017 #TorpedoUK#
Дата кодирования : UTC 2019-04-15 22:42:06
Программа кодирования : mkvmerge v29.0.0 ('Like It Or Not') 64-bit
Библиотека кодирования : libebml v1.3.6 + libmatroska v1.4.9

Видео
Идентификатор : 1
Формат : AVC
Формат/Информация : Advanced Video Codec
Профиль формата : High@L4.1
Параметр CABAC формата : Да
Параметр ReFrames формата : 10 кадров
Идентификатор кодека : V_MPEG4/ISO/AVC
Продолжительность : 1 ч. 43 м.
Битрейт : 1758 Кбит/сек
Ширина : 960 пикселей
Высота : 576 пикселей
Соотношение сторон : 5:3
Режим частоты кадров : Постоянный
Частота кадров : 24,000 кадра/сек
Цветовое пространство : YUV
Субдискретизация насыщенности : 4:2:0
Битовая глубина : 8 бит
Тип развёртки : Прогрессивная
Бит/(Пиксели*Кадры) : 0.132
Размер потока : 1,26 Гбайт (82%)
Библиотека кодирования : x264 core 146 r2538 121396c
Настройки программы : cabac=1 / ref=10 / deblock=1:-3:-3 / analyse=0x3:0x113 / me=umh / subme=11 / psy=1 / psy_rd=0.97:0.07 / mixed_ref=1 / me_range=48 / chroma_me=1 / trellis=2 / 8x8dct=1 / cqm=0 / deadzone=21,11 / fast_pskip=1 / chroma_qp_offset=-3 / threads=6 / lookahead_threads=1 / sliced_threads=0 / nr=0 / decimate=1 / interlaced=0 / bluray_compat=0 / constrained_intra=0 / bframes=10 / b_pyramid=2 / b_adapt=2 / b_bias=0 / direct=3 / weightb=1 / open_gop=0 / weightp=2 / keyint=240 / keyint_min=24 / scenecut=40 / intra_refresh=0 / rc_lookahead=40 / rc=2pass / mbtree=1 / bitrate=1758 / ratetol=1.0 / qcomp=0.60 / qpmin=0 / qpmax=69 / qpstep=4 / cplxblur=20.0 / qblur=0.5 / vbv_maxrate=50000 / vbv_bufsize=62500 / nal_hrd=none / filler=0 / ip_ratio=1.40 / aq=1:1.00
Язык : English
Default : Да
Forced : Нет

Аудио
Идентификатор : 2
Формат : AC-3
Формат/Информация : Audio Coding 3
Расширение режима : CM (complete main)
Параметр Endianness формата : Big
Идентификатор кодека : A_AC3
Продолжительность : 1 ч. 42 м.
Вид битрейта : Постоянный
Битрейт : 384 Кбит/сек
Каналы : 6 каналов
Расположение каналов : Front: L C R, Side: L R, LFE
Частота : 48,0 КГц
Частота кадров : 31,250 кадров/сек (1536 spf)
Битовая глубина : 16 бит
Метод сжатия : С потерями
Размер потока : 283 Мбайт (18%)
Заголовок : DUB [iTunes]
Язык : Russian
Default : Да
Forced : Нет

Меню
00:00:00.000 : en:Chapter 1
00:05:44.166 : en:Chapter 2
00:12:07.750 : en:Chapter 3
00:18:28.250 : en:Chapter 4
00:25:54.875 : en:Chapter 5
00:32:11.833 : en:Chapter 6
00:38:50.291 : en:Chapter 7
00:45:21.000 : en:Chapter 8
00:51:00.500 : en:Chapter 9
00:57:40.250 : en:Chapter 10
01:04:43.791 : en:Chapter 11
01:10:38.000 : en:Chapter 12
01:17:53.416 : en:Chapter 13
01:23:36.541 : en:Chapter 14
01:32:00.791 : en:Chapter 15
01:37:08.875 : en:Chapter 16

piratbit.org



Скачать Голодные Z через торрент http://i99.fastpic.ru/big/2018/0903/f0/0b383362a1e22ee99b82789aa69336f0.jpg Скачать фильм Голодные Z через торрент бесплантно в хорошем качестве Описание: В небольшой деревушке неподалеку от Квебека все изменилось. Местные жители уже не те, что раньше: их тела разлагаются, а сами они ... 10 10 4
Торрент: Зарегистрирован [2019-04-15 23:12] · скачан: 56 раз
Статус: √ проверено
Размер: 1.54 GB
Как cкачать? Как скачать Голодные Z через торрент | qTorrent

% Раздел Тема Автор DL S | L
Фильмы 2017 [DVDrip, WEB-DLRip, HDrip] (DUB, MVO) [ 1.42 GB ] Голодные Z / Les affames / Ravenous [2017 BDRip] - Twi7ter Скачать
26 | 1
Фильмы [HD 720p, 1080p] (Хороший звук DUB, MVO) [ 8.39 GB ] Голодные Z / Les affames / Ravenous [2017 BDRip 1080p] DUB bober100 Скачать
13 | 1
Фильмы (Blu-ray, BD-Remux, HDDVD) [ 18.01 GB ] Голодные Z / Les affames / Ravenous [2017 BD Remux 1080p] DUB bober100 Скачать
8 | 0
Фильмы [HD 720p, 1080p] (Хороший звук DUB, MVO) [ 2.86 GB ] Голодные Z / Les affames / Ravenous [2017 BDRip 720p] DUB bober100 Скачать
8 | 0
Фильмы 2017 [DVDrip, WEB-DLRip, HDrip] (DUB, MVO) [ 1.42 GB ] Голодные Z / Les affames / Ravenous [2017 BDRip] bober100 Скачать
22 | 0


>> Регистрируемся здесь <<






Отзывы и комментарии о схеме читаем и пишем здесь: ---> Отзывы и комментарии о схеме

Новые благодарочки в телеграм довольных пользователей:
скриншот   скриншот   скриншот   скриншот   скриншот
    Дорогой пользователь! Огромная просьба, поблагодарите релизера, оцените раздачу и оставьте свои комментарий, если Вы скачали Голодные Z через торрент бесплатно! Внесите свою лепту в развитие PiratBit!
    Комментировать посты могут только пользователи прошедшие не сложную регистрацию
    Показать сообщения:    

    Голодные Z через торрент
    Скачать бесплатно Голодные Z
    Голодные Z скачать торрент
    Голодные Z смотреть онлайн
    Cкачать фильм Голодные Z бесплатно
    Голодные Z скачать торрент в хорошем качестве
    Голодные Z смотреть онлайн бесплатно в хорошем качестве


    Вы не можете начинать темы
    Вы не можете отвечать на сообщения
    Вы не можете редактировать свои сообщения
    Вы не можете удалять свои сообщения
    Вы не можете голосовать в опросах
    Вы не можете прикреплять файлы к сообщениям
    Вы можете скачивать файлы