Мега распродажа FORZA HORIZON 4 ULTIMATE+ВСЕ DLC+ОНЛАЙН всего за 499р. 349 руб. (супер цена). Внимание количество ограничено!!!

Лицензия

30

iTunes

мы

iTunes

1

1 сезон

Чернобыль

1 сезон

Ральф против интернета

MVO

Покемон. Детектив Пикачу

8 сезон

Игра престолов

iTunes

1+1

ИГРА 18+

pack

ВАЖНО

!!Акция!!

Alien_RageХит недели

RePack

Resident Evil 21
pack

RePack

Metro:Exodus

!!Акция!!

Alien_Rage

RePack

fifa19

RePack

Assassins Creed: Odyssey

RePack

NEED FOR SPEED™ PAYBACK

3 сезон

9 сезон

Бесстыжие 9 сезон

Все сериалы

все сериалы на PB.wtf

RePack

FAR CRY 5
Ребята, катастрофически не хватает 2730р. для оплаты серверов за МАЙ (всвязи с блокировками трафик упал в 3 раза), 1-2р., выручайте.
  

Другая / Сезон: 1 / Серии: 1-18 из 18 (Дмитрий Лактионов) [2019, Детектив, драма, триллер, WEB-DLRip] piratbit.org

Другая через торрент piratbit.org

Раздают: 2 [ 345 KB/s ]
Размер: 10.23 GB | Добавлен: 1 мес. 20 д. назад | Торрент скачан:26 раз
Скачать  

15-04-2019 23:27 Другая Скачать торрент  

ДругаяГод выпуска: 2019
Страна: Украина
Жанр: Детектив, драма, триллер
Продолжительность: ~ 00:50:00 серия
Перевод: Не требуется
Субтитры: отсутствуют

Режиссер: Дмитрий Лактионов

В ролях:

Натали Старынкевич, Александр Никитин, Светлана Малюкова, Кирилл Жандаров, Мила Сивацкая, Петр Нестеров, Светлана Степанковская, Дмитрий Сарансков

Описание:

История молодой и привлекательной женщины, которая становится случайной свидетельницей убийства и теперь вынуждена скрываться от бандитов, чтобы и самой не погибнуть. Лучший друг главной героини, который давно в нее влюблен, помогает ей исчезнуть, чтобы хоть на время избавиться от опасного преследователя. Ульяна решает уехать в другой город к своей успешной и богатой сестре-близняшке Лере, с которой давно не общалась. Но на пороге встречи узнает, что сестра только что погибла. А все ее окружение – муж, друзья, коллеги – принимают Ульяну за Леру. Но сможет ли Ульяна стать полноценной хозяйкой чужой жизни, исполняя роль другого человека?

Качество: WEB-DLRip
Формат: AVI

Видео: XviD, ~ 1600 Кбит/с, 720х400
Аудио: AC3, 2 ch, 192 Кбит/с
скриншот  скриншот  скриншот  скриншот  

Общее
Полное имя : D:\Другая.2019.WEB-DLRip. Files-x\O1. Другая.2019.WEB-DLRip. Files-x.avi
Формат : AVI
Формат/Информация : Audio Video Interleave
Размер файла : 593 Мбайт
Продолжительность : 46 м. 0 с.
Общий поток : 1802 Кбит/сек
Программа кодирования : VirtualDubMod 1.5.10.3 | www.virtualdub-fr.org || (build 2550/release)
Библиотека кодирования : VirtualDubMod build 2550/release

Видео
Идентификатор : 0
Формат : MPEG-4 Visual
Профиль формата : Advanced Simple@L5
Параметр BVOP формата : 1
Параметр QPel формата : Нет
Параметр GMC формата : Без точки перехода
Параметр матрицы формата : Выборочная
Идентификатор кодека : XVID
Идентификатор кодека/Подсказка : XviD
Продолжительность : 46 м. 0 с.
Битрейт : 1600 Кбит/сек
Ширина : 720 пикселей
Высота : 400 пикселей
Соотношение сторон : 16:9
Частота кадров : 25,000 кадров/сек
Цветовое пространство : YUV
Субдискретизация насыщенности : 4:2:0
Битовая глубина : 8 бит
Тип развёртки : Прогрессивная
Метод сжатия : С потерями
Бит/(Пиксели*Кадры) : 0.222
Размер потока : 526 Мбайт (89%)
Библиотека кодирования : XviD 73

Аудио
Идентификатор : 1
Формат : AC-3
Формат/Информация : Audio Coding 3
Расширение режима : CM (complete main)
Параметр Endianness формата : Big
Идентификатор кодека : 2000
Продолжительность : 46 м. 0 с.
Вид битрейта : Постоянный
Битрейт : 192 Кбит/сек
Каналы : 2 канала
Расположение каналов : Front: L R
Частота : 48,0 КГц
Частота кадров : 31,250 кадров/сек (1536 spf)
Метод сжатия : С потерями
Размер потока : 63,2 Мбайт (11%)
Выравнивание : Разделение по промежуткам
Продолжительность промежутка : 40 мс. (1,00 видеокадр)
Время предзагрузки промежутка : 500 мс.

Когда раздача ведётся путём добавления новых серий, при каждом добавлении создётся новый торрент. Чтобы начать докачку новой серии, пользователям необходимо сделать следующее:
(1) остановить скачивание,
(2) удалить старый торрент у себя из клиента (старые серии удалять не надо),
(3) скачать новый торрент и запустить его у себя в клиенте вместо старого, при этом указать клиенту путь в старую папку, куда и должно происходить скачивание новых серий.
Ваш клиент при этом должен произвести хеширование (проверку) старой папки (если не производит сам - помогите ему сделать это), и будет докачивать только те серии, которых у вас ещё нет. Старые серии при этом не удаляются, а продолжают раздаваться!
Eсли вы уже удалили старые серии, то предотвратить повторную закачку старых серий можно, отжав галочку в соответсвующих местах при запуске нового торрента. По возможности, желательно не удалять старые серии как можно дольше, чтобы релизёр не столько продолжал раздавать старые серии, а смог сконцентрироваться на новых.
piratbit.org



Скачать Другая через торрент https://i110.fastpic.ru/big/2019/0416/54/ba5e527c6cd30f089826860d3cfabc54.jpg Скачать фильм Другая через торрент бесплантно в хорошем качестве Описание: История молодой и привлекательной женщины, которая становится случайной свидетельницей убийства и теперь вынуждена скрываться от ... 6.7 10 6
Торрент: Зарегистрирован [2019-04-26 11:02] · скачан: 26 раз
Статус: √ проверено
Размер: 10.23 GB
Как cкачать? Как скачать Другая через торрент | qTorrent

% Раздел Тема Автор DL S | L
Наши сериалы [ 10.19 GB ] Другая / Сезон: 1 / Серии: 1-18 из 18 [2019 WEBRip-AVC] bober100 Скачать
1 | 1


>> Регистрируемся здесь <<






Отзывы и комментарии о схеме читаем и пишем здесь: ---> Отзывы и комментарии о схеме

Новые благодарочки в телеграм довольных пользователей:
скриншот   скриншот   скриншот   скриншот   скриншот
    Дорогой пользователь! Огромная просьба, поблагодарите релизера, оцените раздачу и оставьте свои комментарий, если Вы скачали Другая через торрент бесплатно! Внесите свою лепту в развитие PiratBit!
    Комментировать посты могут только пользователи прошедшие не сложную регистрацию
    Показать сообщения:    

    Другая через торрент
    Скачать бесплатно Другая
    Другая скачать торрент
    Другая смотреть онлайн
    Cкачать фильм Другая бесплатно
    Другая скачать торрент в хорошем качестве
    Другая смотреть онлайн бесплатно в хорошем качестве


    Вы не можете начинать темы
    Вы не можете отвечать на сообщения
    Вы не можете редактировать свои сообщения
    Вы не можете удалять свои сообщения
    Вы не можете голосовать в опросах
    Вы не можете прикреплять файлы к сообщениям
    Вы можете скачивать файлы