Мега распродажа FORZA HORIZON 4 ULTIMATE+ВСЕ DLC+ОНЛАЙН всего за 499р. 349 руб. (супер цена). Внимание количество ограничено!!!

iTunes

1+1

iTunes

мы

iTunes

1

iTunes

Чернобыль

1 сезон

Ральф против интернета

Лицензия

ПШазам

Лицензия

Игра престолов

Лицензия

30
pack

ВАЖНО

!!Акция!!

Alien_RageХит недели

RePack

Resident Evil 21

ИГРА 18+

pack

RePack

Metro:Exodus

!!Акция!!

Alien_Rage

RePack

fifa19

RePack

Assassins Creed: Odyssey

RePack

NEED FOR SPEED™ PAYBACK

3 сезон

9 сезон

Бесстыжие 9 сезон

Все сериалы

все сериалы на PB.wtf

RePack

FAR CRY 5
Ребята, катастрофически не хватает 7730р. для оплаты серверов за ИЮЛЬ (всвязи с блокировками трафик упал в 3 раза), 1-2р., выручайте.
  

Другая / Сезон: 1 / Серии: 1-18 из 18 (Дмитрий Лактионов) [2019, Детектив, драма, триллер, WEBRip-AVC] piratbit.org

Другая через торрент piratbit.org

Размер: 10.19 GB | Добавлен: 3 мес. 22 д. назад | Торрент скачан:32 раза
Скачать  

15-04-2019 23:38 Другая Скачать торрент  

ДругаяГод выпуска: 2019
Страна: Украина
Жанр: Детектив, драма, триллер
Продолжительность: ~ 00:50:00 серия
Перевод: Не требуется
Субтитры: отсутствуют

Режиссер: Дмитрий Лактионов

В ролях:

Натали Старынкевич, Александр Никитин, Светлана Малюкова, Кирилл Жандаров, Мила Сивацкая, Петр Нестеров, Светлана Степанковская, Дмитрий Сарансков

Описание:

История молодой и привлекательной женщины, которая становится случайной свидетельницей убийства и теперь вынуждена скрываться от бандитов, чтобы и самой не погибнуть. Лучший друг главной героини, который давно в нее влюблен, помогает ей исчезнуть, чтобы хоть на время избавиться от опасного преследователя. Ульяна решает уехать в другой город к своей успешной и богатой сестре-близняшке Лере, с которой давно не общалась. Но на пороге встречи узнает, что сестра только что погибла. А все ее окружение – муж, друзья, коллеги – принимают Ульяну за Леру. Но сможет ли Ульяна стать полноценной хозяйкой чужой жизни, исполняя роль другого человека?

Качество: WEBRip-AVC
Формат: MKV

Видео: 1024x576, (16:9), 25 fps, AVC MPEG-4 (x264), High@L4.1 ~ 1600 kbps , 0.109 bit/pixel
Аудио: 48 kHz, АС3, 2/0 (L,R), ~192.00 kbps avg
скриншот  скриншот  скриншот  скриншот  

Общее
Уникальный идентификатор : 184505616258387916896806933078974639487 (0x8ACE7D375BF72DDF8A3878A6CF4BAD7F)
Полное имя : C:\Другая.(2019).WEBRip.(AVC).Files-x\01.Другая.(2019).WEBRip.(AVC).by.Серый1779.Files-x.mkv
Формат : Matroska
Версия формата : Version 2
Размер файла : 590 Мбайт
Продолжительность : 46 м. 0 с.
Общий поток : 1793 Кбит/сек
Дата кодирования : UTC 2019-04-15 21:45:01
Программа кодирования : mkvmerge v7.8.0 ('River Man') 32bit built on Apr 3 2015 12:11:22
Библиотека кодирования : libebml v1.3.1 + libmatroska v1.4.2

Видео
Идентификатор : 1
Формат : AVC
Формат/Информация : Advanced Video Codec
Профиль формата : High@L4.1
Настройки формата : CABAC / 9 Ref Frames
Параметр CABAC формата : Да
Параметр RefFrames формата : 9 кадров
Идентификатор кодека : V_MPEG4/ISO/AVC
Продолжительность : 46 м. 0 с.
Битрейт : 1600 Кбит/сек
Ширина : 1024 пикселя
Высота : 576 пикселей
Соотношение сторон : 16:9
Режим частоты кадров : Постоянный
Частота кадров : 25,000 кадров/сек
Цветовое пространство : YUV
Субдискретизация насыщенности : 4:2:0
Битовая глубина : 8 бит
Тип развёртки : Прогрессивная
Бит/(Пиксели*Кадры) : 0.109
Размер потока : 515 Мбайт (87%)
Библиотека кодирования : x264 core 146 r2538 121396c
Настройки программы : cabac=1 / ref=9 / deblock=1:-2:-1 / analyse=0x3:0x133 / me=umh / subme=9 / psy=1 / psy_rd=1.00:0.15 / mixed_ref=1 / me_range=32 / chroma_me=1 / trellis=2 / 8x8dct=1 / cqm=0 / deadzone=21,11 / fast_pskip=0 / chroma_qp_offset=-3 / threads=18 / lookahead_threads=3 / sliced_threads=0 / nr=0 / decimate=1 / interlaced=0 / bluray_compat=0 / constrained_intra=0 / bframes=9 / b_pyramid=2 / b_adapt=2 / b_bias=0 / direct=1 / weightb=1 / open_gop=0 / weightp=2 / keyint=250 / keyint_min=25 / scenecut=40 / intra_refresh=0 / rc=2pass / mbtree=0 / bitrate=1600 / ratetol=1.0 / qcomp=0.60 / qpmin=0 / qpmax=69 / qpstep=4 / cplxblur=20.0 / qblur=0.5 / ip_ratio=1.40 / pb_ratio=1.30 / aq=2:1.00
Default : Да
Forced : Нет
Цветовой диапазон : Limited
Основные цвета : BT.709
Характеристики трансфера : BT.709
Коэффициенты матрицы : BT.709

Аудио
Идентификатор : 2
Формат : AC-3
Формат/Информация : Audio Coding 3
Коммерческое название : Dolby Digital
Идентификатор кодека : A_AC3
Продолжительность : 46 м. 0 с.
Вид битрейта : Постоянный
Битрейт : 192 Кбит/сек
Каналы : 2 канала
Channel layout : L R
Частота : 48,0 КГц
Частота кадров : 31,250 кадров/сек (1536 SPF)
Битовая глубина : 16 бит
Метод сжатия : С потерями
Размер потока : 63,2 Мбайт (11%)
ServiceKind/String : Complete Main
Default : Да
Forced : Нет

Когда раздача ведётся путём добавления новых серий, при каждом добавлении создётся новый торрент. Чтобы начать докачку новой серии, пользователям необходимо сделать следующее:
(1) остановить скачивание,
(2) удалить старый торрент у себя из клиента (старые серии удалять не надо),
(3) скачать новый торрент и запустить его у себя в клиенте вместо старого, при этом указать клиенту путь в старую папку, куда и должно происходить скачивание новых серий.
Ваш клиент при этом должен произвести хеширование (проверку) старой папки (если не производит сам - помогите ему сделать это), и будет докачивать только те серии, которых у вас ещё нет. Старые серии при этом не удаляются, а продолжают раздаваться!
Eсли вы уже удалили старые серии, то предотвратить повторную закачку старых серий можно, отжав галочку в соответсвующих местах при запуске нового торрента. По возможности, желательно не удалять старые серии как можно дольше, чтобы релизёр не столько продолжал раздавать старые серии, а смог сконцентрироваться на новых.
piratbit.org



Скачать Другая через торрент https://i110.fastpic.ru/big/2019/0416/54/ba5e527c6cd30f089826860d3cfabc54.jpg Скачать фильм Другая через торрент бесплантно в хорошем качестве Описание: История молодой и привлекательной женщины, которая становится случайной свидетельницей убийства и теперь вынуждена скрываться от ... 8 10 5
Торрент: Зарегистрирован [2019-04-26 09:03] · скачан: 32 раз
Статус: √ проверено
Размер: 10.19 GB
Как cкачать? Как скачать Другая через торрент | qTorrent

% Раздел Тема Автор DL S | L
Наши сериалы [ 10.23 GB ] Другая / Сезон: 1 / Серии: 1-18 из 18 [2019 WEB-DLRip] bober100 Скачать
2 | 0


Последний раз редактировалось: bober100 (2019-04-26 09:03), всего редактировалось 8 раз(а)


>> Регистрируемся здесь <<






Отзывы и комментарии о схеме читаем и пишем здесь: ---> Отзывы и комментарии о схеме

Новые благодарочки в телеграм довольных пользователей:
скриншот   скриншот   скриншот   скриншот   скриншот

16-04-2019 13:49 Другая Скачать торрент  

понятное дело - вдул бы!piratbit.org



    Дорогой пользователь! Огромная просьба, поблагодарите релизера, оцените раздачу и оставьте свои комментарий, если Вы скачали Другая через торрент бесплатно! Внесите свою лепту в развитие PiratBit!
    Комментировать посты могут только пользователи прошедшие не сложную регистрацию
    Показать сообщения:    

    Другая через торрент
    Скачать бесплатно Другая
    Другая скачать торрент
    Другая смотреть онлайн
    Cкачать фильм Другая бесплатно
    Другая скачать торрент в хорошем качестве
    Другая смотреть онлайн бесплатно в хорошем качестве


    Вы не можете начинать темы
    Вы не можете отвечать на сообщения
    Вы не можете редактировать свои сообщения
    Вы не можете удалять свои сообщения
    Вы не можете голосовать в опросах
    Вы не можете прикреплять файлы к сообщениям
    Вы можете скачивать файлы