MEGA SALE -50% FORZA HORIZON 4 ULTIMATE+ВСЕ DLC+ОНЛАЙН всего за 599р. 299 руб. (супер цена). Внимание количество ограничено!!!

iTunes

1+1

iTunes

мы

iTunes

1

iTunes

Чернобыль

iTunes

Ральф против интернета

Лицензия

ПШазам

Лицензия

Игра престолов

Лицензия

30
pack

ВАЖНО

!!Акция!!

Alien_RageХит недели

RePack

Resident Evil 21

ИГРА 18+

pack

RePack

Metro:Exodus

!!Акция!!

Alien_Rage

RePack

fifa19

RePack

Assassins Creed: Odyssey

RePack

NEED FOR SPEED™ PAYBACK

3 сезон

9 сезон

Бесстыжие 9 сезон

Все сериалы

все сериалы на PB.wtf

RePack

FAR CRY 5
Ребята, катастрофически не хватает 7730р. для оплаты серверов за АВГУСТ (всвязи с блокировками трафик упал в 3 раза), 1-2р., выручайте.
  

Игра престолов / Game of Thrones / Сезон: 1-7 из 7 / Серии: 1-67 из 67 (Алан Тейлор, Даниэль Минахан, Дэвид Наттер, Брайан Кирк) [2011-2018, Фэнтези, драма, при, BDRip 1080p] 2xMVO [LostFilm, AlexFilm] +DUB [Кравец] piratbit.org

Игра престолов через торрент piratbit.org

Качают: 2 [ 0 KB/s ]
Размер: 324.63 GB | Добавлен: 5 мес. 3 д. назад | Торрент скачан:62 раза
Скачать  

15-04-2019 23:55 Игра престолов Скачать торрент  

═╬ Игра престолов / Game of Thrones ╬═ Год выпуска: 2011-2018
Страна: США, Великобритания
Жанр: Фэнтези, драма, приключения
Продолжительность: 00:55:00

Перевод 1: Профессиональный (многоголосый закадровый) | LostFilm
Перевод 2: Профессиональный (многоголосый закадровый) | AlexFilm
Перевод 3: Профессиональный (дублированный) | Кравец

Субтитры: Русские, английские

Режиссёр: Алан Тейлор, Даниэль Минахан

rating


В ролях:

Питер Динклэйдж (Tyrion Lannister), Лина Хиди (Cersei Lannister), Эмилия Кларк (Daenerys Targaryen), Кит Харингтон (Jon Snow), Софи Тернер (Sansa Stark), Мэйси Уильямс (Arya Stark), Николай Костер-Вальдау (Jaime Lannister), Иэн Глен (Jorah Mormont), Алфи Аллен (Theon Greyjoy), Джон Брэдли (Samwell Tarly), Эйдан Гиллен (Petyr «Littlefinger» Baelish), Конлет Хилл (Lord Varys)
Описание:

К концу подходит время благоденствия, и лето, длившееся почти десятилетие, угасает. Вокруг средоточия власти Семи королевств, Железного трона, зреет заговор, и в это непростое время король решает искать поддержки у друга юности Эддарда Старка. В мире, где все — от короля до наемника — рвутся к власти, плетут интриги и готовы вонзить нож в спину, есть место и благородству, состраданию и любви. Между тем, никто не замечает пробуждение тьмы из легенд далеко на Севере — и лишь Стена защищает живых к югу от нее.

Качество: BDRip 1080p
Контейнер: MKV

Видео: MPEG-4 AVC, ~ 10 Мбит/с, 1920x1080
Аудио 1: Русский (LostFilm) AC3, 6 ch, 640 Кбит/с, 48.0 KHz
Аудио 2: Русский (AlexFilm) AC3, 6 ch, 640 Кбит/с, 48.0 KHz
Аудио 3: Русский (Dub) AC3, 6 ch, 640 Кбит/с, 48.0 KHz
Аудио 4: Английский, AC3, 6 ch, 640 Кбит/с, 48.0 KHz
Сезон 1:

01. Зима близко (Winter Is Coming)
02. Королевский тракт (The Kingsroad)
03. Лорд Сноу (Lord Snow)
04. Калеки, бастарды и сломанные вещи (Cripples, Bastards, and Broken Things)
05. Волк и лев (The Wolf and the Lion)
06. Золотая корона (A Golden Crown)
07. Ты побеждаешь или погибаешь (You Win or You Die)
08. Острый конец (The Pointy End)
09. Бейелор (Baelor)
10. Пламя и кровь (Fire and Blood)

Сезон 2:

01. Север помнит (The North Remembers)
02. Ночные земли (The Night Lands)
03. То, что мертво, умереть не может (What Is Dead May Never Die)
04. Сад костей (Garden of Bones)
05. Призрак Харренхола (The Ghost of Harrenhal)
06. Боги старые и новые (The Old Gods and the New)
07. Человек без чести (A Man Without Honor)
08. Принц Винтерфелла (The Prince of Winterfell)
09. Черноводная (Blackwater)
10. Валар Моргулис (Valar Morghulis)

Сезон 3:

01. Валар Дохаэрис (Valar Dohaeris)
02. Чёрные крылья, чёрные вести (Dark Wings, Dark Words)
03. Стезя страданий (Walk of Punishment)
04. Теперь его дозор окончен (And Now His Watch Is Ended)
05. Поцелованная огнём (Kissed by Fire)
06. Подъём (The Climb)
07. Медведь и прекрасная дева (The Bear and the Maiden Fair)
08. Младшие Сыны (Second Sons)
09. Рейны из Кастамере (The Rains of Castamere)
10. Миса (Mhysa)

Сезон 4:

01. Два меча (Two Swords)
02. Лев и Роза (The Lion and the Rose)
03. Разрушительница оков (Breaker of Chains)
04. Верный клятве (Oathkeeper)
05. Первый этого имени (First of His Name)
06. Законы богов и людей (The Laws of Gods and Men )
07. Пересмешник (Mockingbird)
08. Гора и Змей (The Mountain and the Viper)
09. Дозорные на Стене (The Watchers on the Wall)
10. Дети (The Children)

Сезон 5:

01. Грядущие войны (The Wars to Come)
02. Черно-белый дом (The House of Black and White)
03. Его Воробейшество (High Sparrow)
04. Сыны Гарпии (The Sons of the Harpy)
05. Убей мальчишку (Kill the Boy)
06. Непокорны, несгибаемы, не сломлены (Unbowed, Unbent, Unbroken)
07. Дар (The Gift)
08. Суровый дом (Hardhome)
09. Танец драконов (The Dance of Dragons)
10. Милосердие матери (Mother's Mercy)

Сезон 6:
01. Красная женщина / The Red Woman
02. Дом / Home
03. Нарушивший клятву / Oathbreaker
04. Книга Неведомого / Book of the Stranger
05. Дверь / The Door
06. Кровь моей крови / Blood of My Blood
07. Сломленный человек / The Broken Man
08. Никто / No One
09. Битва бастардов / Battle of the Bastards
10. Ветра зимы / The Winds of Winte

Сезон 7:
01. Драконий камень / Dragonston
02. Бурерожденная / Stormborn
03. Правосудие королевы / The Queen's Justice
04. Трофеи войны / The Spoils of War
05. Восточный Дозор / Eastwatch
06. За Стеной / Beyond the Wall
07. Дракон и Волк / The Dragon and the Wolf
Game.of.Thrones.S01-07.LostFilm.AlexFilm.Dub.Eng.BDRip.1080p\GOT.S05\GOT.S05E01.BDRip.1080p.mkv
Format : Matroska
Format version : Version 4 / Version 2
File size : 4.61 GiB
Duration : 52mn 11s
Overall bit rate : 12.6 Mbps
Encoded date : UTC 2019-04-13 14:20:36
Writing application : mkvmerge v6.8.0 ('Theme for Great Cities') 32bit built on Mar 2 2014 21:27:07
Writing library : libebml v1.3.0 + libmatroska v1.4.1

Video
ID : 1
Format : AVC
Format/Info : Advanced Video Codec
Format profile : High@L4.0
Format settings, CABAC : Yes
Format settings, ReFrames : 4 frames
Codec ID : V_MPEG4/ISO/AVC
Duration : 52mn 11s
Bit rate : 10 000 Kbps
Width : 1 920 pixels
Height : 1 080 pixels
Display aspect ratio : 16:9
Frame rate mode : Constant
Frame rate : 23.976 fps
Color space : YUV
Chroma subsampling : 4:2:0
Bit depth : 8 bits
Scan type : Progressive
Bits/(Pixel*Frame) : 0.201
Stream size : 3.58 GiB (78%)
Writing library : x264 core 157 r2935 545de2f
Encoding settings : cabac=1 / ref=4 / deblock=1:-3:-3 / analyse=0x3:0x113 / me=umh / subme=11 / psy=1 / psy_rd=1.00:0.00 / mixed_ref=1 / me_range=32 / chroma_me=1 / trellis=2 / 8x8dct=1 / cqm=0 / deadzone=21,11 / fast_pskip=0 / chroma_qp_offset=-4 / threads=9 / lookahead_threads=2 / sliced_threads=0 / nr=0 / decimate=0 / interlaced=0 / bluray_compat=0 / constrained_intra=0 / bframes=9 / b_pyramid=2 / b_adapt=2 / b_bias=0 / direct=3 / weightb=1 / open_gop=0 / weightp=2 / keyint=240 / keyint_min=23 / scenecut=40 / intra_refresh=0 / rc=2pass / mbtree=0 / bitrate=10000 / ratetol=1.0 / qcomp=0.65 / qpmin=0 / qpmax=69 / qpstep=4 / cplxblur=20.0 / qblur=0.5 / ip_ratio=1.40 / pb_ratio=1.30 / aq=3:0.80
Default : Yes
Forced : No

Audio #1
ID : 2
Format : AC-3
Format/Info : Audio Coding 3
Mode extension : CM (complete main)
Format settings, Endianness : Big
Codec ID : A_AC3
Duration : 52mn 11s
Bit rate mode : Constant
Bit rate : 640 Kbps
Channel(s) : 6 channels
Channel positions : Front: L C R, Side: L R, LFE
Sampling rate : 48.0 KHz
Bit depth : 16 bits
Compression mode : Lossy
Stream size : 239 MiB (5%)
Title : LostFilm
Language : Russian
Default : Yes
Forced : No

Audio #2
ID : 3
Format : AC-3
Format/Info : Audio Coding 3
Mode extension : CM (complete main)
Format settings, Endianness : Big
Codec ID : A_AC3
Duration : 52mn 11s
Bit rate mode : Constant
Bit rate : 640 Kbps
Channel(s) : 6 channels
Channel positions : Front: L C R, Side: L R, LFE
Sampling rate : 48.0 KHz
Bit depth : 16 bits
Compression mode : Lossy
Stream size : 239 MiB (5%)
Title : AlexFilm
Language : Russian
Default : No
Forced : No

Audio #3
ID : 4
Format : AC-3
Format/Info : Audio Coding 3
Mode extension : CM (complete main)
Format settings, Endianness : Big
Codec ID : A_AC3
Duration : 52mn 11s
Bit rate mode : Constant
Bit rate : 640 Kbps
Channel(s) : 6 channels
Channel positions : Front: L C R, Side: L R, LFE
Sampling rate : 48.0 KHz
Bit depth : 16 bits
Compression mode : Lossy
Stream size : 239 MiB (5%)
Title : DUB
Language : Russian
Default : No
Forced : No

Audio #4
ID : 5
Format : AC-3
Format/Info : Audio Coding 3
Mode extension : CM (complete main)
Format settings, Endianness : Big
Codec ID : A_AC3
Duration : 52mn 11s
Bit rate mode : Constant
Bit rate : 640 Kbps
Channel(s) : 6 channels
Channel positions : Front: L C R, Side: L R, LFE
Sampling rate : 48.0 KHz
Bit depth : 16 bits
Compression mode : Lossy
Stream size : 239 MiB (5%)
Title : English
Language : English
Default : No
Forced : No

Text #1
ID : 6
Format : PGS
Muxing mode : zlib
Codec ID : S_HDMV/PGS
Codec ID/Info : The same subtitle format used on BDs/HD-DVDs
Language : Russian
Default : No
Forced : No

Text #2
ID : 7
Format : PGS
Muxing mode : zlib
Codec ID : S_HDMV/PGS
Codec ID/Info : The same subtitle format used on BDs/HD-DVDs
Language : Russian
Default : No
Forced : No

Text #3
ID : 8
Format : PGS
Muxing mode : zlib
Codec ID : S_HDMV/PGS
Codec ID/Info : The same subtitle format used on BDs/HD-DVDs
Language : English
Default : No
Forced : No

Text #4
ID : 9
Format : PGS
Muxing mode : zlib
Codec ID : S_HDMV/PGS
Codec ID/Info : The same subtitle format used on BDs/HD-DVDs
Language : Russian
Default : No
Forced : No

Text #5
ID : 10
Format : PGS
Muxing mode : zlib
Codec ID : S_HDMV/PGS
Codec ID/Info : The same subtitle format used on BDs/HD-DVDs
Language : English
Default : No
Forced : No
piratbit.org



Скачать Игра престолов через торрент https://www.thetvdb.com/banners/graphical/5c8c227dbd218.jpg Скачать фильм Игра престолов через торрент бесплантно в хорошем качестве Описание: К концу подходит время благоденствия, и лето, длившееся почти десятилетие, угасает. Вокруг средоточия власти Семи королевств, ... 10 10 6
Торрент: Зарегистрирован [2019-04-15 23:55] · скачан: 62 раз
Статус: √ проверено
Размер: 324.63 GB
Как cкачать? Как скачать Игра престолов через торрент | qTorrent

% Раздел Тема Автор DL S | L
Игра престолов [ 785.59 GB ] Игра престолов / Game of Thrones / Сезон: 1-7 из 7 / Серии: 1-67 из 67 [2011-2017 BDRemux 1080p] 2xDUB + 11xMVO sheker187 Скачать
1 | 0
Игра престолов [ 1.024 TB ] Игра престолов / Game of Thrones / Сезон 1-7 / Серии 1-67 из 67 [2011-2017 Blu-ray 1080p] 3xMVO sheker187 Скачать
1 | 0
Игра престолов [ 297.23 GB ] Игра престолов / Game of Thrones / Сезон: 1-7 из 7 / Серии: 1-67 из 67 [2011-2017 BDRip 1080p] MVO [LostFilm] sheker187 Скачать
3 | 1


>> Регистрируемся здесь <<






Отзывы и комментарии о схеме читаем и пишем здесь: ---> Отзывы и комментарии о схеме

Новые благодарочки в телеграм довольных пользователей:
скриншот   скриншот   скриншот   скриншот   скриншот
    Дорогой пользователь! Огромная просьба, поблагодарите релизера, оцените раздачу и оставьте свои комментарий, если Вы скачали Игра престолов через торрент бесплатно! Внесите свою лепту в развитие PiratBit!
    Комментировать посты могут только пользователи прошедшие не сложную регистрацию
    Показать сообщения:    

    Игра престолов через торрент
    Скачать бесплатно Игра престолов
    Игра престолов скачать торрент
    Игра престолов смотреть онлайн
    Cкачать фильм Игра престолов бесплатно
    Игра престолов скачать торрент в хорошем качестве
    Игра престолов смотреть онлайн бесплатно в хорошем качестве


    Вы не можете начинать темы
    Вы не можете отвечать на сообщения
    Вы не можете редактировать свои сообщения
    Вы не можете удалять свои сообщения
    Вы не можете голосовать в опросах
    Вы не можете прикреплять файлы к сообщениям
    Вы можете скачивать файлы