ВНИМАНИЕ!!! Роскомнадзор заблокировал piratbit.org в РФ навсегда, просьба установить наш плагин который откроет доступ из РФ, для Хром, Ябраузер, Опера -> Mozilla FireFox и перейти на pb.wtf. о плагине

Лицензия

30

MVO

Как приручить дракона 3

11 сезон

1

1 сезон

гринч

iTunes

Стекло

iTunes

Клаустрофобы

8 сезон

Игра престолов

iTunes

Ральф против интернета Хит недели

ИГРА 18+

pack

ВАЖНО

!!Акция!!

Alien_RageХит недели

RePack

Resident Evil 21
pack

RePack

Metro:Exodus

!!Акция!!

Alien_Rage

RePack

fifa19

RePack

Assassins Creed: Odyssey

RePack

NEED FOR SPEED™ PAYBACK

3 сезон

9 сезон

Бесстыжие 9 сезон

Все сериалы

все сериалы на PB.wtf

RePack

FAR CRY 5
Ребята, критически не успеваем дособрать 3200р. для оплаты серверов за Март (всвязи с блокировками трафик упал в 3 раза), 1-2р., выручайте.
  

Семья по-быстрому / Instant Family (Шон Андерс) [2018, драма, комедия, BDRip-AVC] MVO [HDRezka Studio] piratbit.org

Семья по-быстрому через торрент piratbit.org

Раздают: 60 [ 2 MB/s ] Качают: 2 [ 0 KB/s ]
Размер: 2.01 GB | Добавлен: 5 д. назад | Торрент скачан:276 раз
Скачать  

16-04-2019 00:13 Семья по-быстрому Скачать торрент  

Семья по-быстрому / Instant Family Год выпуска: 2018
Страна: США
Жанр: драма, комедия
Продолжительность: 01:58:05
Перевод: Профессиональный (многоголосый) | HDRezka Studio
Субтитры: Английские (полные, SDH)

Режиссер: Шон Андерс

rating

В ролях:

Марк Уолберг, Роуз Бирн, Изабела Монер, Густаво Куирос мл., Джулианна Гамиз, Октавия Спенсер, Тиг Нотаро, Том Сегура, Эллин Рэйчел, Бритт Рентшлер

Описание:

В центре сюжета оказываются супруги Пит и Элли. Считая, что в мире слишком много сирот, они решают усыновить ребенка. Супруги вступают в сложную систему усыновления и участвуют в занятиях по подготовке к воспитанию. Сперва они надеялись взять только одного ребенка, но в силу возникших обстоятельств супруги становятся приемными родителями сразу троих детей, старшей из которых, бунтарке Лиззи, уже исполнилось 15 лет. И теперь Питу и Элли нужно приложить максимум усилий, чтобы превратить «семью по-быстрому» в настоящую...

Качество: BDRip-AVC
Формат: MKV

Видео: 1024x426 (2.40:1), 23,976 fps, x264 ~1 794 kbps avg, 0.172 bit/pixel
Аудио#1: 48 kHz, AC3 Dolby Digital, 2 (L,R) ch, ~192.00 kbps avg | RUS (HDRezka Studio)
Аудио#2: 48 kHz, AC3 Dolby Digital, 3/2 (L,C,R,l,r) + LFE ch, ~448.00 kbps avg | ENG
скриншот  скриншот  скриншот  скриншот  

Общее
Уникальный идентификатор : 145315401105464208591290519192109708050 (0x6D52BA6DBCDECC8B75EBEC2A07FDF312)
Полное имя : F:\OlLanDGroup\Instant.Family.2018.BDRip(AVC).OlLanDGroup.mkv
Формат : Matroska
Версия формата : Version 4 / Version 2
Размер файла : 2,01 Гбайт
Продолжительность : 1 ч. 58 м.
Общий поток : 2436 Кбит/сек
Название фильма : Instant.Family.2018 #TorpedoUK#
Дата кодирования : UTC 2019-04-15 23:42:41
Программа кодирования : mkvmerge v29.0.0 ('Like It Or Not') 64-bit
Библиотека кодирования : libebml v1.3.6 + libmatroska v1.4.9

Видео
Идентификатор : 1
Формат : AVC
Формат/Информация : Advanced Video Codec
Профиль формата : High@L4.1
Параметр CABAC формата : Да
Параметр ReFrames формата : 10 кадров
Идентификатор кодека : V_MPEG4/ISO/AVC
Продолжительность : 1 ч. 58 м.
Битрейт : 1794 Кбит/сек
Ширина : 1024 пикселя
Высота : 426 пикселей
Соотношение сторон : 2,40:1
Режим частоты кадров : Постоянный
Частота кадров : 23,976 (24000/1001) кадра/сек
Цветовое пространство : YUV
Субдискретизация насыщенности : 4:2:0
Битовая глубина : 8 бит
Тип развёртки : Прогрессивная
Бит/(Пиксели*Кадры) : 0.172
Размер потока : 1,48 Гбайт (74%)
Библиотека кодирования : x264 core 146 r2538 121396c
Настройки программы : cabac=1 / ref=10 / deblock=1:-3:-3 / analyse=0x3:0x113 / me=umh / subme=11 / psy=1 / psy_rd=0.98:0.04 / mixed_ref=1 / me_range=48 / chroma_me=1 / trellis=2 / 8x8dct=1 / cqm=0 / deadzone=21,11 / fast_pskip=1 / chroma_qp_offset=-3 / threads=6 / lookahead_threads=1 / sliced_threads=0 / nr=0 / decimate=1 / interlaced=0 / bluray_compat=0 / constrained_intra=0 / bframes=11 / b_pyramid=2 / b_adapt=2 / b_bias=0 / direct=3 / weightb=1 / open_gop=0 / weightp=2 / keyint=240 / keyint_min=23 / scenecut=40 / intra_refresh=0 / rc_lookahead=40 / rc=2pass / mbtree=0 / bitrate=1794 / ratetol=1.0 / qcomp=0.60 / qpmin=0 / qpmax=69 / qpstep=4 / cplxblur=20.0 / qblur=0.5 / vbv_maxrate=50000 / vbv_bufsize=62500 / nal_hrd=none / filler=0 / ip_ratio=1.40 / pb_ratio=1.30 / aq=1:1.00
Язык : English
Default : Да
Forced : Нет

Аудио #1
Идентификатор : 2
Формат : AC-3
Формат/Информация : Audio Coding 3
Расширение режима : CM (complete main)
Параметр Endianness формата : Big
Идентификатор кодека : A_AC3
Продолжительность : 1 ч. 58 м.
Вид битрейта : Постоянный
Битрейт : 192 Кбит/сек
Каналы : 2 канала
Расположение каналов : Front: L R
Частота : 48,0 КГц
Частота кадров : 31,250 кадров/сек (1536 spf)
Битовая глубина : 16 бит
Метод сжатия : С потерями
Размер потока : 162 Мбайт (8%)
Заголовок : MVO [HDRezka Studio]
Язык : Russian
Default : Да
Forced : Нет

Аудио #2
Идентификатор : 3
Формат : AC-3
Формат/Информация : Audio Coding 3
Расширение режима : CM (complete main)
Параметр Endianness формата : Big
Идентификатор кодека : A_AC3
Продолжительность : 1 ч. 58 м.
Вид битрейта : Постоянный
Битрейт : 448 Кбит/сек
Каналы : 6 каналов
Расположение каналов : Front: L C R, Side: L R, LFE
Частота : 48,0 КГц
Частота кадров : 31,250 кадров/сек (1536 spf)
Битовая глубина : 16 бит
Метод сжатия : С потерями
Размер потока : 378 Мбайт (18%)
Заголовок : [Original]
Язык : English
Default : Нет
Forced : Нет

Текст #1
Идентификатор : 4
Формат : UTF-8
Идентификатор кодека : S_TEXT/UTF8
Идентификатор кодека/Информация : UTF-8 Plain Text
Продолжительность : 1 ч. 52 м.
Битрейт : 98 бит/сек
Count of elements : 2243
Размер потока : 81,3 Кбайт (0%)
Заголовок : Full
Язык : English
Default : Нет
Forced : Нет

Текст #2
Идентификатор : 5
Формат : UTF-8
Идентификатор кодека : S_TEXT/UTF8
Идентификатор кодека/Информация : UTF-8 Plain Text
Продолжительность : 1 ч. 57 м.
Битрейт : 98 бит/сек
Count of elements : 2366
Размер потока : 84,9 Кбайт (0%)
Заголовок : SDH
Язык : English
Default : Нет
Forced : Нет

Меню
00:00:00.000 : en:Chapter 01
00:07:54.807 : en:Chapter 02
00:13:08.621 : en:Chapter 03
00:24:59.539 : en:Chapter 04
00:32:26.235 : en:Chapter 05
00:37:12.897 : en:Chapter 06
00:44:44.264 : en:Chapter 07
00:50:12.467 : en:Chapter 08
00:57:41.249 : en:Chapter 09
01:02:31.831 : en:Chapter 10
01:08:50.751 : en:Chapter 11
01:15:25.854 : en:Chapter 12
01:23:04.688 : en:Chapter 13
01:28:42.567 : en:Chapter 14
01:37:53.993 : en:Chapter 15
01:52:54.392 : en:Chapter 16

piratbit.org



Скачать Семья по-быстрому через торрент https://i109.fastpic.ru/big/2019/0416/dc/6cda8c2e4c8aefa9c4f6180d183d65dc.jpg Скачать фильм Семья по-быстрому через торрент бесплантно в хорошем качестве Описание: В центре сюжета оказываются супруги Пит и Элли. Считая, что в мире слишком много сирот, они решают усыновить ребенка. Супруги ... 10 10 7
Торрент: Зарегистрирован [2019-04-16 00:13] · скачан: 276 раз
Статус: T временная
Размер: 2.01 GB
Как cкачать? Как скачать Семья по-быстрому через торрент | qTorrent

% Раздел Тема Автор DL S | L
T Фильмы (Blu-ray, BD-Remux, HDDVD) [ 26.21 GB ] Семья по-быстрому / Instant Family [2018 BD Remux 1080p] MVO [HDrezka Studio] bober100 Скачать
4 | 1
T Фильмы [HD 720p, 1080p] (Хороший звук DUB, MVO) [ 9.35 GB ] Семья по-быстрому / Instant Family [2018 BDRip 1080p] MVO [HDrezka Studio] bober100 Скачать
32 | 2
T Фильмы с украинским озвучиванием [ 1.48 GB ] Семья по-быстрому / Instant Family [2018 BDRip] [Ukr DUB] killermax2013 Скачать
5 | 0
T Фильмы с украинским озвучиванием [ 4.75 GB ] Семья по-быстрому / Instant Family [2018 BDRip 720p] [Ukr DUB] killermax2013 Скачать
3 | 0
T Фильмы (мультфильмы) cо спонсором показа (Новинки AVI/MKV) [ 2.05 GB ] Семья по-быстрому / Instant Family [2018 WEB-DLRip] DUB [Звук с TS] bober100 Скачать
3 | 0
T Фильмы (мультфильмы) cо спонсором показа (Новинки AVI/MKV) [ 1.37 GB ] Семья по-быстрому / Instant Family [2018 WEB-DLRip] DUB [Звук с TS] bober100 Скачать
3 | 0


>> Регистрируемся здесь <<






Отзывы и комментарии о схеме читаем и пишем здесь: ---> Отзывы и комментарии о схеме

Новые благодарочки в телеграм довольных пользователей:
скриншот   скриншот   скриншот   скриншот   скриншот

16-04-2019 15:38 Семья по-быстрому Скачать торрент  

фильм запретят в евроопе. семья слишком нормальная. сын не черный гей. доч не фемка. все актеров уволят.итд=)) пс. почему девочка без усов.piratbit.org



    Дорогой пользователь! Огромная просьба, поблагодарите релизера, оцените раздачу и оставьте свои комментарий, если Вы скачали Семья по-быстрому через торрент бесплатно! Внесите свою лепту в развитие PiratBit!
    Комментировать посты могут только пользователи прошедшие не сложную регистрацию
    Показать сообщения:    

    Семья по-быстрому через торрент
    Скачать бесплатно Семья по-быстрому
    Семья по-быстрому скачать торрент
    Семья по-быстрому смотреть онлайн
    Cкачать фильм Семья по-быстрому бесплатно
    Семья по-быстрому скачать торрент в хорошем качестве
    Семья по-быстрому смотреть онлайн бесплатно в хорошем качестве


    Вы не можете начинать темы
    Вы не можете отвечать на сообщения
    Вы не можете редактировать свои сообщения
    Вы не можете удалять свои сообщения
    Вы не можете голосовать в опросах
    Вы не можете прикреплять файлы к сообщениям
    Вы можете скачивать файлы