Достать ножи: Стеклянная луковица

MVO

Добыча

Дубляж

Уэнсдэй

1 сезон

Тор

Дубляж

13 клиническая

1 сезон

Жестокая ночь

MVO

Одни из нас

1 сезон

Deluxe

pack

Рекомендуем

30

Пиратка

ВАЖНО

ВАЖНО

Ghostwire

Пиратка

jed

RePack

nioh2

RePack

RDR2

RePack

NEED FOR SPEED™ PAYBACK

RePack

скачать торрент

Кинопоиск HD

Острые козырьки 6 сезон

6 сезон

FAR CRY 6

RePack

скачать торрент

Лицензия

скачать торрент

MVO

1

1 сезон

скачать торрент

1 сезон

скачать торрент

Лицензия

  

Первый мститель: Противостояние / Captain America: Civil War (Энтони Руссо, Джо Руссо) [2016, Фантастика, боевик, приключения, UHD BDRemux 2160p] Дубляж (rus, ukr) [iTunes] +AVO+MVO

Первый мститель: Противостояние через торрент piratbit.org

Размер: 58.4 GB | Добавлен: 3 года 9 мес. назад | Торрент скачан:90 раз
Смотреть онлайн | Скачать | Поддержите нас   

16-04-2019 18:32 Первый мститель: Противостояние Скачать торрент  

Первый мститель: Противостояние / Captain America: Civil War
Год выпуска: 2016
Страна: США
Жанр: Фантастика, боевик, приключения
Продолжительность: 02:27:41
Перевод:

#1: Дублированный | iTunes
#2: Авторский | Гаврилов
#3: Профессиональный многоголосый | FocusStudio

Субтитры: Русские (Forced, full), украинские (Forced), английские

Режиссер: Энтони Руссо, Джо Руссо

rating

В ролях:

Крис Эванс, Роберт Дауни мл., Скарлетт Йоханссон, Себастьян Стэн, Энтони Маки, Дон Чидл, Джереми Реннер, Чэдвик Боузмэн, Пол Беттани, Элизабет Олсен

Описание:

После того, как Мстители помешали космическому засланцу отжать кусок исконных земель у мирного восточноевропейского государства и совершили еще множество глупых подвигов, они успешно приватизировали мир во всем мире. Однако, не все готовы терпеть супергеройские методы, зачастую имеющие разрушительные последствия и влекущие за собой человеческие жертвы. Стремясь урегулировать деятельность людей с расширенными возможностями и вынуждая их работать на государственные службы, правительство вводит "Акт о регистрации супергероев". Стив Роджерс считает этот занимательный документ прямым ограничением своих прав и свобод. Он выступает против нового порядка. Тони Старк, напротив, поддерживает любую форму контроля. У каждого из них находятся свои сторонники в среде супергероев. Коренное разногласие в этом принципиальном вопросе приводит к идеологическому расколу Мстителей, а затем и к открытому конфликту между двумя супергеройскими фракциями. И пока Капитан Америка и Железный человек устраивают групповые дуэли, некий арийский иллюминат Гельмут Земо претворяет в жизнь свой коварный план, пользуясь досадными трениями между величайшими героями Земли.

Качество: UHD BDRemux 2160p
Формат: MKV

Видео: 3840x2160 at 23.976 fps, MPEG-H HEVC HDR Video, 42000 kbps avg
Аудио#1: 48 kHz, AC3, 5.1, 384 Kbps | iTunes | RUS |
Аудио#2: 48 kHz, AC3, 5.1, 448 Kbps | Гаврилов | RUS |
Аудио#3: 48 kHz, DTS-HD MA, 7.1, 4724 Kbps | FocusStudio | RUS |
Аудио#4: 48 kHz, DTS-HD MA, 5.1, 3745 Kbps | Дублированный | UKR |
Аудио#5: 48 kHz, TrueHD, 7.1, 4620 Kbps | Оригинал | ENG |
Аудио#6: 48 kHz, AC3, 5.1, 640 Kbps | Оригинал | ENG |
скриншот  скриншот  скриншот  скриншот  скриншот  

General
Unique ID : 99794447851518129866529741417108224659 (0x4B13B6277DA9F178FECFE0F94A743A93)
Complete name : D:Video111Captain.America.Civil.War.2016.BDREMUX.2160p.HDR.seleZen.mkv
Format : Matroska
Format version : Version 4
File size : 58.4 GiB
Duration : 2 h 27 min
Overall bit rate mode : Variable
Overall bit rate : 56.6 Mb/s
Movie name : Captain America Civil War 2016 from селезень
Encoded date : UTC 2019-04-16 18:17:46
Writing application : mkvmerge v32.0.0 ('Astral Progressions') 64-bit
Writing library : libebml v1.3.7 + libmatroska v1.5.0

Video
ID : 1
Format : HEVC
Format/Info : High Efficiency Video Coding
Format profile : Main 10@L5.1@High
HDR format : SMPTE ST 2086, HDR10 compatible
Codec ID : V_MPEGH/ISO/HEVC
Duration : 2 h 27 min
Bit rate : 42.0 Mb/s
Width : 3 840 pixels
Height : 2 160 pixels
Display aspect ratio : 16:9
Frame rate mode : Constant
Frame rate : 23.976 (24000/1001) FPS
Color space : YUV
Chroma subsampling : 4:2:0 (Type 2)
Bit depth : 10 bits
Bits/(Pixel*Frame) : 0.211
Stream size : 43.3 GiB (74%)
Language : English
Default : Yes
Forced : No
Color range : Limited
Color primaries : BT.2020
Transfer characteristics : PQ
Matrix coefficients : BT.2020 non-constant
Mastering display color pri : Display P3
Mastering display luminance : min: 0.0020 cd/m2, max: 1000 cd/m2
Maximum Content Light Level : 717 cd/m2
Maximum Frame-Average Light : 578 cd/m2

Audio #1
ID : 2
Format : AC-3
Format/Info : Audio Coding 3
Commercial name : Dolby Digital
Codec ID : A_AC3
Duration : 2 h 27 min
Bit rate mode : Constant
Bit rate : 384 kb/s
Channel(s) : 6 channels
Channel layout : L R C LFE Ls Rs
Sampling rate : 48.0 kHz
Frame rate : 31.250 FPS (1536 SPF)
Bit depth : 16 bits
Compression mode : Lossy
Delay relative to video : 785 ms
Stream size : 406 MiB (1%)
Title : Дубляж [iTunes]
Language : Russian
Service kind : Complete Main
Default : Yes
Forced : Yes

Audio #2
ID : 3
Format : AC-3
Format/Info : Audio Coding 3
Commercial name : Dolby Digital
Codec ID : A_AC3
Duration : 2 h 27 min
Bit rate mode : Constant
Bit rate : 448 kb/s
Channel(s) : 6 channels
Channel layout : L R C LFE Ls Rs
Sampling rate : 48.0 kHz
Frame rate : 31.250 FPS (1536 SPF)
Bit depth : 16 bits
Compression mode : Lossy
Stream size : 473 MiB (1%)
Title : AVO [Gavrilov]
Language : Russian
Service kind : Complete Main
Default : No
Forced : No

Audio #3
ID : 4
Format : DTS XLL
Format/Info : Digital Theater Systems
Commercial name : DTS-HD Master Audio
Codec ID : A_DTS
Duration : 2 h 27 min
Bit rate mode : Variable
Bit rate : 4 724 kb/s
Channel(s) : 8 channels
Channel layout : C L R LFE Lb Rb Lss Rss
Sampling rate : 48.0 kHz
Frame rate : 93.750 FPS (512 SPF)
Bit depth : 24 bits
Compression mode : Lossless
Stream size : 4.87 GiB (8%)
Title : MVO [FocusStudio]
Language : Russian
Default : No
Forced : No

Audio #4
ID : 5
Format : DTS XLL
Format/Info : Digital Theater Systems
Commercial name : DTS-HD Master Audio
Codec ID : A_DTS
Duration : 2 h 27 min
Bit rate mode : Variable
Bit rate : 3 745 kb/s
Channel(s) : 6 channels
Channel layout : C L R Ls Rs LFE
Sampling rate : 48.0 kHz
Frame rate : 93.750 FPS (512 SPF)
Bit depth : 24 bits
Compression mode : Lossless
Stream size : 3.86 GiB (7%)
Title : Дубляж
Language : Ukrainian
Default : No
Forced : No

Audio #5
ID : 6
Format : MLP FBA 16-ch
Format/Info : Meridian Lossless Packing FBA with 16-channel presentation
Commercial name : Dolby TrueHD with Dolby Atmos
Codec ID : A_TRUEHD
Duration : 2 h 27 min
Bit rate mode : Variable
Bit rate : 4 620 kb/s
Maximum bit rate : 7 659 kb/s
Channel(s) : 8 channels
Channel layout : L R C LFE Ls Rs Lb Rb
Sampling rate : 48.0 kHz
Frame rate : 1 200.000 FPS (40 SPF)
Compression mode : Lossless
Stream size : 4.77 GiB (8%)
Title : Original
Language : English
Default : No
Forced : No
Number of dynamic objects : 13
Bed channel count : 1 channel
Bed channel configuration : LFE

Audio #6
ID : 7
Format : AC-3
Format/Info : Audio Coding 3
Commercial name : Dolby Digital
Codec ID : A_AC3
Duration : 2 h 27 min
Bit rate mode : Constant
Bit rate : 640 kb/s
Channel(s) : 6 channels
Channel layout : L R C LFE Ls Rs
Sampling rate : 48.0 kHz
Frame rate : 31.250 FPS (1536 SPF)
Bit depth : 16 bits
Compression mode : Lossy
Stream size : 676 MiB (1%)
Language : English
Service kind : Complete Main
Default : No
Forced : No

Text #1
ID : 8
Format : UTF-8
Codec ID : S_TEXT/UTF8
Codec ID/Info : UTF-8 Plain Text
Duration : 1 h 44 min
Bit rate : 2 b/s
Count of elements : 59
Stream size : 1.91 KiB (0%)
Title : Forced
Language : Russian
Default : Yes
Forced : Yes

Text #2
ID : 9
Format : UTF-8
Codec ID : S_TEXT/UTF8
Codec ID/Info : UTF-8 Plain Text
Duration : 2 h 25 min
Bit rate : 74 b/s
Count of elements : 1722
Stream size : 80.1 KiB (0%)
Title : Full
Language : Russian
Default : No
Forced : No

Text #3
ID : 10
Format : UTF-8
Codec ID : S_TEXT/UTF8
Codec ID/Info : UTF-8 Plain Text
Duration : 2 h 6 min
Bit rate : 3 b/s
Count of elements : 85
Stream size : 3.18 KiB (0%)
Title : Forced
Language : Ukrainian
Default : No
Forced : No

Text #4
ID : 11
Format : UTF-8
Codec ID : S_TEXT/UTF8
Codec ID/Info : UTF-8 Plain Text
Duration : 2 h 25 min
Bit rate : 50 b/s
Count of elements : 1865
Stream size : 54.2 KiB (0%)
Title : Full
Language : English
Default : No
Forced : No

Text #5
ID : 12
Format : UTF-8
Codec ID : S_TEXT/UTF8
Codec ID/Info : UTF-8 Plain Text
Duration : 2 h 26 min
Bit rate : 55 b/s
Count of elements : 2105
Stream size : 59.1 KiB (0%)
Title : SDH
Language : English
Default : No
Forced : No

Menu
00:00:00.000 : :Глава 01
00:09:01.958 : :Глава 02
00:13:04.992 : :Глава 03
00:21:03.345 : :Глава 04
00:27:53.380 : :Глава 05
00:31:57.290 : :Глава 06
00:35:08.397 : :Глава 07
00:42:58.450 : :Глава 08
00:52:04.621 : :Глава 09
01:05:39.101 : :Глава 10
01:16:41.638 : :Глава 11
01:22:28.777 : :Глава 12
01:29:29.489 : :Глава 13
01:34:09.769 : :Глава 14
01:45:38.582 : :Глава 15
01:55:54.322 : :Глава 16
02:02:35.056 : :Глава 17
02:12:14.176 : :Глава 18
02:18:29.384 : :Глава 19




Скачать Первый мститель: Противостояние через торрент http://img16.lostpic.net/2019/04/16/5f3b37e60088ca1f811a10d9b2bb6182.jpg Скачать, смотреть онлайн Первый мститель: Противостояние бесплантно в хорошем качестве Описание: После того, как Мстители помешали космическому засланцу отжать кусок исконных земель у мирного восточноевропейского государства и ... 10 10 6
Info! Золотая раздача, скачанное не засчитывается.
Торрент: Зарегистрирован [2019-04-16 19:58] · скачан: 90 раз
Статус: √ проверено
Размер: 58.4 GB
Как cкачать? Как скачать Первый мститель: Противостояние через торрент | UTorrent

% Раздел Тема Автор DL S | L
Ultra HD (UHD: 2K, 4K, 8K) [ 21.79 GB ] Первый мститель: Противостояние / Captain America: Civil War | iTunes | 2160p bober100 Скачать
1 | 0

28-11-2019 20:33  


Отключить вcю реклaмy на сайте, в т.ч. и в плеере онлайн просмотра!

    Дорогой пользователь! Огромная просьба, поблагодарите релизера, оцените раздачу и оставьте свои комментарий, если Вы скачали Первый мститель: Противостояние через торрент бесплатно!!
    Комментировать посты могут только пользователи прошедшие не сложную регистрацию
    Показать сообщения:    


    Первый мститель: Противостояние через торрент
    Скачать бесплатно Первый мститель: Противостояние
    Первый мститель: Противостояние скачать торрент
    Первый мститель: Противостояние смотреть онлайн
    Cкачать фильм Первый мститель: Противостояние бесплатно
    Первый мститель: Противостояние скачать торрент в хорошем качестве
    Первый мститель: Противостояние смотреть онлайн бесплатно в хорошем качестве
    Вы не можете начинать темы
    Вы не можете отвечать на сообщения
    Вы не можете редактировать свои сообщения
    Вы не можете удалять свои сообщения
    Вы не можете голосовать в опросах
    Вы не можете прикреплять файлы к сообщениям
    Вы можете скачивать файлы
    Первый мститель: Противостояние / Captain America: Civil War [2016, Фантастика, боевик, приключения, UHD BDRemux 2160p] Дубляж [iTunes] +AVO+MVO смотреть онлайн, скачать торрент picoco.icu