Мега распродажа FORZA HORIZON 4 ULTIMATE+ВСЕ DLC+ОНЛАЙН всего за 499р. 349 руб. (супер цена). Внимание количество ограничено!!!

Лицензия

30

iTunes

мы

iTunes

1

1 сезон

Чернобыль

1 сезон

Ральф против интернета

MVO

Покемон. Детектив Пикачу

8 сезон

Игра престолов

iTunes

1+1

ИГРА 18+

pack

ВАЖНО

!!Акция!!

Alien_RageХит недели

RePack

Resident Evil 21
pack

RePack

Metro:Exodus

!!Акция!!

Alien_Rage

RePack

fifa19

RePack

Assassins Creed: Odyssey

RePack

NEED FOR SPEED™ PAYBACK

3 сезон

9 сезон

Бесстыжие 9 сезон

Все сериалы

все сериалы на PB.wtf

RePack

FAR CRY 5
Ребята, катастрофически не хватает 2730р. для оплаты серверов за МАЙ (всвязи с блокировками трафик упал в 3 раза), 1-2р., выручайте.
  

Острота ощущений / Intensity / Dean Koontz's Intensity (Ив Симоно) [1997, Триллер, драма, экранизация, DVDRip] [MVO] (ОРТ) piratbit.org

Острота ощущений через торрент piratbit.org

Размер: 2.03 GB | Добавлен: 1 мес. 29 д. назад | Торрент скачан:8 раз
Скачать  

17-04-2019 09:02 Острота ощущений Скачать торрент  

Острота ощущений / Intensity / Dean Koontz's Intensity

Год выпуска: 1997
Страна: США
Жанр: Триллер, драма, экранизация
Продолжительность: 01:30:15 + 01:30:18
Перевод: Профессиональный (многоголосый, закадровый) [ОРТ]

Режиссер: Ив Симоно / Yves Simoneau

В ролях: Джон С. Макгинли, Молли Паркер, Блю Манкума, Лори Энн Триоло, Брент Стэйт, Кэти Стюарт, Динна Миллиган, Кэвэн Смит и другие.

Описание: Чайна Шеппард - двадцатишестилетняя студентка факультета психологии, которая пережила чрезвычайно сложную драму в прошлом. Во время посещения Чайной дома Лауры Тэмплтон, серийный убийца по имени Эдглер Форман Вэсс врывается в дом, убивая Лауру и ее родителей. Чайна выживает, но она узнаёт о пленнике Вэсса: девочке, пойманной в ловушку в доме Вэсса. Чайна чувствует большую ответственность за эту девочку, и она погружается глубже в ее кошмар.



Качество: DVDRip (Dean Koontz's Intensity [1997/DVDRIP/x264])
Формат: MKV
Видео кодек: H.264
Аудио кодек: AC3
Видео: H.264 / 1212 kbps / 720:480 [852:480] / 23.976 fps / 16:9 / Main@L4.0
Дорожка №1: Русский AC3 DD 2.0, 48 kHz ~ 192 kbps | Профессиональный (многоголосый, закадровый) [ОРТ]
Дорожка №2: Английский AC3 DD 2.0, 48 kHz ~ 192 kbps | Оригинальная дорожка

Чаптеры: да
скриншот  скриншот  скриншот  
General
Complete name : Intensity.Night.One.DVDRip.H264.AC3.ru.en.mkv
Format : Matroska
Format version : Version 4 / Version 2
File size : 1.00 GiB
Duration : 1h 30mn
Overall bit rate : 1 589 Kbps
Encoded date : UTC 2015-03-28 09:59:53
Writing application : mkvmerge v7.0.0 ('Where We Going') 64bit built on Jun 9 2014 15:16:27
Writing library : libebml v1.3.0 + libmatroska v1.4.1
DURATION : 01:30:15.936000000
NUMBER_OF_FRAMES : 169248
NUMBER_OF_BYTES : 129982464
_STATISTICS_WRITING_APP : mkvmerge v7.0.0 ('Where We Going') 64bit built on Jun 9 2014 15:16:27
_STATISTICS_WRITING_DATE_UTC : 2015-03-28 09:59:53
_STATISTICS_TAGS : BPS DURATION NUMBER_OF_FRAMES NUMBER_OF_BYTES

Video
ID : 1
Format : AVC
Format/Info : Advanced Video Codec
Format profile : Main@L4.0
Format settings, CABAC : Yes
Format settings, ReFrames : 4 frames
Codec ID : V_MPEG4/ISO/AVC
Bit rate : 1 174 Kbps
Width : 720 pixels
Height : 480 pixels
Display aspect ratio : 16:9
Frame rate mode : Variable
Standard : NTSC
Color space : YUV
Chroma subsampling : 4:2:0
Bit depth : 8 bits
Scan type : Progressive
Title : Intensity.Night.One.DVDRip.H264.AC3
Writing library : x264 core 130 r2273 b3065e6
Encoding settings : cabac=1 / ref=1 / deblock=1:0:0 / analyse=0x1:0x111 / me=hex / subme=2 / psy=1 / psy_rd=1.00:0.00 / mixed_ref=0 / me_range=16 / chroma_me=1 / trellis=0 / 8x8dct=0 / cqm=0 / deadzone=21,11 / fast_pskip=1 / chroma_qp_offset=0 / threads=3 / lookahead_threads=1 / sliced_threads=0 / nr=0 / decimate=1 / interlaced=0 / bluray_compat=0 / constrained_intra=0 / bframes=3 / b_pyramid=2 / b_adapt=1 / b_bias=0 / direct=1 / weightb=1 / open_gop=0 / weightp=1 / keyint=240 / keyint_min=24 / scenecut=40 / intra_refresh=0 / rc_lookahead=10 / rc=crf / mbtree=1 / crf=20.0 / qcomp=0.60 / qpmin=0 / qpmax=69 / qpstep=4 / vbv_maxrate=20000 / vbv_bufsize=25000 / crf_max=0.0 / nal_hrd=none / ip_ratio=1.40 / aq=1:1.00
Language : English
Default : Yes
Forced : No
Color primaries : BT.601 NTSC
Transfer characteristics : BT.709
Matrix coefficients : BT.601

Audio #1
ID : 2
Format : AC-3
Format/Info : Audio Coding 3
Mode extension : CM (complete main)
Format settings, Endianness : Big
Codec ID : A_AC3
Duration : 1h 30mn
Bit rate mode : Constant
Bit rate : 192 Kbps
Channel(s) : 2 channels
Channel positions : Front: L R
Sampling rate : 48.0 KHz
Bit depth : 16 bits
Compression mode : Lossy
Stream size : 124 MiB (12%)
Title : Russian DD 2.0 192kbps [OPT]
Language : Russian
Default : Yes
Forced : No

Audio #2
ID : 3
Format : AC-3
Format/Info : Audio Coding 3
Mode extension : CM (complete main)
Format settings, Endianness : Big
Codec ID : A_AC3
Duration : 1h 30mn
Bit rate mode : Constant
Bit rate : 192 Kbps
Channel(s) : 2 channels
Channel positions : Front: L R
Sampling rate : 48.0 KHz
Bit depth : 16 bits
Compression mode : Lossy
Stream size : 124 MiB (12%)
Title : English DD 2.0 192kbps
Language : Russian
Default : No
Forced : No

Menu
00:00:00.000 : en:Chapter 1
00:10:15.615 : en:Chapter 2
00:19:41.680 : en:Chapter 3
00:29:53.291 : en:Chapter 4
00:39:56.394 : en:Chapter 5
00:50:28.025 : en:Chapter 6
01:00:10.607 : en:Chapter 7
01:10:43.239 : en:Chapter 8
01:20:05.801 : en:Chapter 9

General
Complete name : Intensity.Night.Two.DVDRip.H264.AC3.ru.en.mkv
Format : Matroska
Format version : Version 4 / Version 2
File size : 1.03 GiB
Duration : 1h 30mn
Overall bit rate : 1 628 Kbps
Encoded date : UTC 2015-03-28 08:58:42
Writing application : mkvmerge v7.0.0 ('Where We Going') 64bit built on Jun 9 2014 15:16:27
Writing library : libebml v1.3.0 + libmatroska v1.4.1
DURATION : 01:30:18.112000000
NUMBER_OF_FRAMES : 169316
NUMBER_OF_BYTES : 130034688
_STATISTICS_WRITING_APP : mkvmerge v7.0.0 ('Where We Going') 64bit built on Jun 9 2014 15:16:27
_STATISTICS_WRITING_DATE_UTC : 2015-03-28 08:58:42
_STATISTICS_TAGS : BPS DURATION NUMBER_OF_FRAMES NUMBER_OF_BYTES

Video
ID : 1
Format : AVC
Format/Info : Advanced Video Codec
Format profile : Main@L4.0
Format settings, CABAC : Yes
Format settings, ReFrames : 4 frames
Codec ID : V_MPEG4/ISO/AVC
Bit rate : 1 212 Kbps
Width : 720 pixels
Height : 480 pixels
Display aspect ratio : 16:9
Frame rate mode : Variable
Standard : NTSC
Color space : YUV
Chroma subsampling : 4:2:0
Bit depth : 8 bits
Scan type : Progressive
Title : Intensity.Night.Two.DVDRip.H264.AC3
Writing library : x264 core 130 r2273 b3065e6
Encoding settings : cabac=1 / ref=1 / deblock=1:0:0 / analyse=0x1:0x111 / me=hex / subme=2 / psy=1 / psy_rd=1.00:0.00 / mixed_ref=0 / me_range=16 / chroma_me=1 / trellis=0 / 8x8dct=0 / cqm=0 / deadzone=21,11 / fast_pskip=1 / chroma_qp_offset=0 / threads=3 / lookahead_threads=1 / sliced_threads=0 / nr=0 / decimate=1 / interlaced=0 / bluray_compat=0 / constrained_intra=0 / bframes=3 / b_pyramid=2 / b_adapt=1 / b_bias=0 / direct=1 / weightb=1 / open_gop=0 / weightp=1 / keyint=240 / keyint_min=24 / scenecut=40 / intra_refresh=0 / rc_lookahead=10 / rc=crf / mbtree=1 / crf=20.0 / qcomp=0.60 / qpmin=0 / qpmax=69 / qpstep=4 / vbv_maxrate=20000 / vbv_bufsize=25000 / crf_max=0.0 / nal_hrd=none / ip_ratio=1.40 / aq=1:1.00
Language : English
Default : Yes
Forced : No
Color primaries : BT.601 NTSC
Transfer characteristics : BT.709
Matrix coefficients : BT.601

Audio #1
ID : 2
Format : AC-3
Format/Info : Audio Coding 3
Mode extension : CM (complete main)
Format settings, Endianness : Big
Codec ID : A_AC3
Duration : 1h 30mn
Bit rate mode : Constant
Bit rate : 192 Kbps
Channel(s) : 2 channels
Channel positions : Front: L R
Sampling rate : 48.0 KHz
Bit depth : 16 bits
Compression mode : Lossy
Stream size : 124 MiB (12%)
Title : Russian DD 2.0 @ 192kbps [OPT]
Language : Russian
Default : Yes
Forced : No

Audio #2
ID : 3
Format : AC-3
Format/Info : Audio Coding 3
Mode extension : CM (complete main)
Format settings, Endianness : Big
Codec ID : A_AC3
Duration : 1h 30mn
Bit rate mode : Constant
Bit rate : 192 Kbps
Channel(s) : 2 channels
Channel positions : Front: L R
Sampling rate : 48.0 KHz
Bit depth : 16 bits
Compression mode : Lossy
Stream size : 124 MiB (12%)
Title : English DD 2.0 192kbps
Language : English
Default : No
Forced : No

Text
ID : 4
Format : UTF-8
Codec ID : S_TEXT/UTF8
Codec ID/Info : UTF-8 Plain Text
Title : Russian @ SRT [Forced]
Language : Russian
Default : Yes
Forced : No

Menu
00:00:00.000 : en:Chapter 1
00:09:52.091 : en:Chapter 2
00:19:21.660 : en:Chapter 3
00:29:11.750 : en:Chapter 4
00:40:51.449 : en:Chapter 5
00:50:53.550 : en:Chapter 6
00:59:28.565 : en:Chapter 7
01:09:25.161 : en:Chapter 8
01:19:40.776 : en:Chapter 9
piratbit.org



Скачать Острота ощущений через торрент https://i110.fastpic.ru/big/2019/0417/45/fa8b2c522601c5fcdc68e3032d598745.jpg Скачать фильм Острота ощущений через торрент бесплантно в хорошем качестве Описание: Чайна Шеппард - двадцатишестилетняя студентка факультета психологии, которая пережила чрезвычайно сложную драму в прошлом. Во ... 10 10 1
Info! Золотая раздача, скачанное не засчитывается.
Торрент: Зарегистрирован [2019-04-17 09:02] · скачан: 8 раз
Статус: √ проверено
Размер: 2.03 GB
Как cкачать? Как скачать Острота ощущений через торрент | qTorrent


>> Регистрируемся здесь <<






Отзывы и комментарии о схеме читаем и пишем здесь: ---> Отзывы и комментарии о схеме

Новые благодарочки в телеграм довольных пользователей:
скриншот   скриншот   скриншот   скриншот   скриншот
    Дорогой пользователь! Огромная просьба, поблагодарите релизера, оцените раздачу и оставьте свои комментарий, если Вы скачали Острота ощущений через торрент бесплатно! Внесите свою лепту в развитие PiratBit!
    Комментировать посты могут только пользователи прошедшие не сложную регистрацию
    Показать сообщения:    

    Острота ощущений через торрент
    Скачать бесплатно Острота ощущений
    Острота ощущений скачать торрент
    Острота ощущений смотреть онлайн
    Cкачать фильм Острота ощущений бесплатно
    Острота ощущений скачать торрент в хорошем качестве
    Острота ощущений смотреть онлайн бесплатно в хорошем качестве


    Вы не можете начинать темы
    Вы не можете отвечать на сообщения
    Вы не можете редактировать свои сообщения
    Вы не можете удалять свои сообщения
    Вы не можете голосовать в опросах
    Вы не можете прикреплять файлы к сообщениям
    Вы можете скачивать файлы