ВНИМАНИЕ!!! Роскомнадзор заблокировал piratbit.org в РФ навсегда, просьба установить наш плагин который откроет доступ из РФ, для Хром, Ябраузер, Опера -> Mozilla FireFox и перейти на pb.wtf. о плагине

Лицензия

30

MVO

Как приручить дракона 3

11 сезон

1

1 сезон

гринч

iTunes

Стекло

iTunes

Клаустрофобы

8 сезон

Игра престолов

iTunes

Ральф против интернета Хит недели

ИГРА 18+

pack

ВАЖНО

!!Акция!!

Alien_RageХит недели

RePack

Resident Evil 21
pack

RePack

Metro:Exodus

!!Акция!!

Alien_Rage

RePack

fifa19

RePack

Assassins Creed: Odyssey

RePack

NEED FOR SPEED™ PAYBACK

3 сезон

9 сезон

Бесстыжие 9 сезон

Все сериалы

все сериалы на PB.wtf

RePack

FAR CRY 5
Ребята, критически не успеваем дособрать 3200р. для оплаты серверов за Март (всвязи с блокировками трафик упал в 3 раза), 1-2р., выручайте.
  

Милые обманщицы: Перфекционистки / Pretty Little Liars: The Perfectionists / Сезон: 1 / Серии: 1-4 из 10 ( Элизабет Аллен, Норман Бакли, Шири Эпплби) [2019, триллер, драма, мелодрама, криминал, детектив, WEBRip 1080p] [MVO] (TVShows) piratbit.org

Милые обманщицы: Перфекционистки через торрент piratbit.org

Размер: 7.66 GB | Добавлен: 4 д. назад | Торрент скачан:0 раз
Скачать  

02-04-2019 17:47 Милые обманщицы: Перфекционистки Скачать торрент  

Милые обманщицы: Перфекционистки / Pretty Little Liars: The Perfectionists
Год выпуска: 2019
Страна: США
Жанр: Триллер, драма, мелодрама, криминал, детектив
Продолжительность: ~ 00:45:00
Перевод: Профессиональный (многоголосый закадровый) | TVShows
Режиссёр: Элизабет Аллен, Норман Бакли, Шири Эпплби
В ролях: Эли Браун, София Карсон, Хейли Эрин, Грэм Томас Кинг, Крис Мэйсон, Сидни Парк, Джанел Пэрриш, Саша Питерс, Келли Разерфорд, Эван Биттенкур
Описание:Все в городке Бикон Хейтс - от престижного колледжа до суперуспешных резидентов - кажется идеальным. Но ничто в этом городе не является тем, чем кажется. Маниакальное стремление жителей быть безупречными приводит к убийству. Однако найти виновного в преступлении будет непросто - у каждого подозреваемого в этом деле есть масса секретов и прочное алиби.


Качество: WEB-DL 1080p
Формат: MKV
Видео: 1920x1080 (16:9) | X264 | ~4825 kbps | 23.976 fps
Аудио Rus: AC3, 48 kHz, 2 ch, 192 Кбит/сек
Аудио Eng: AAC, 48 kHz, 2 ch, 127 Кбит/сек
Субтитры: отсутствуют
Реклама: отсутствует

General
Unique ID : 249306655949807276651081099745393305356 (0xBB8EB724A49C8130E2ACB9B4EA56E70C)
Complete name : F:\Pretty.Little.Liars.The.Perfectionists.S01.1080p.TVShows\Pretty.Little.Liars.The.Perfectionists.S01E01.1080p.TVShows.mkv
Format : Matroska
Format version : Version 4 / Version 2
File size : 1.57 GiB
Duration : 43 min 33 s
Overall bit rate : 5 146 kb/s
Encoded date : UTC 2019-04-02 06:29:20
Writing application : mkvmerge v31.0.0 ('Dolores In A Shoestand') 64-bit
Writing library : libebml v1.3.6 + libmatroska v1.4.9

Video
ID : 1
Format : AVC
Format/Info : Advanced Video Codec
Format profile : High@L4
Format settings : CABAC / 4 Ref Frames
Format settings, CABAC : Yes
Format settings, ReFrames : 4 frames
Codec ID : V_MPEG4/ISO/AVC
Duration : 43 min 33 s
Bit rate : 4 825 kb/s
Width : 1 920 pixels
Height : 1 080 pixels
Display aspect ratio : 16:9
Frame rate mode : Constant
Frame rate : 23.976 (24000/1001) FPS
Color space : YUV
Chroma subsampling : 4:2:0
Bit depth : 8 bits
Scan type : Progressive
Bits/(Pixel*Frame) : 0.097
Stream size : 1.47 GiB (94%)
Language : English
Default : Yes
Forced : No

Audio #1
ID : 2
Format : AC-3
Format/Info : Audio Coding 3
Codec ID : A_AC3
Duration : 43 min 33 s
Bit rate mode : Constant
Bit rate : 192 kb/s
Channel(s) : 2 channels
Channel positions : Front: L R
Sampling rate : 48.0 kHz
Frame rate : 31.250 FPS (1536 SPF)
Bit depth : 16 bits
Compression mode : Lossy
Stream size : 59.8 MiB (4%)
Title : TVShows
Language : Russian
Service kind : Complete Main
Default : Yes
Forced : Yes

Audio #2
ID : 3
Format : AAC
Format/Info : Advanced Audio Codec
Format profile : HE-AAC / LC
Format settings : Implicit
Codec ID : A_AAC-2
Duration : 43 min 33 s
Bit rate : 127 kb/s
Channel(s) : 2 channels
Channel positions : Front: L R
Sampling rate : 48.0 kHz / 24.0 kHz
Frame rate : 23.438 FPS (1024 SPF)
Compression mode : Lossy
Stream size : 39.5 MiB (2%)
Title : Original
Language : English
Default : No
Forced : No

скриншот   скриншот   скриншот  

Когда раздача ведётся путём добавления новых серий, при каждом добавлении создётся новый торрент. Чтобы начать докачку новой серии, пользователям необходимо сделать следующее:
(1) остановить скачивание,
(2) удалить старый торрент у себя из клиента (старые серии удалять не надо),
(3) скачать новый торрент и запустить его у себя в клиенте вместо старого, при этом указать клиенту путь в старую папку, куда и должно происходить скачивание новых серий.
Ваш клиент при этом должен произвести хеширование (проверку) старой папки (если не производит сам - помогите ему сделать это), и будет докачивать только те серии, которых у вас ещё нет. Старые серии при этом не удаляются, а продолжают раздаваться!
Eсли вы уже удалили старые серии, то предотвратить повторную закачку старых серий можно, отжав галочку в соответсвующих местах при запуске нового торрента. По возможности, желательно не удалять старые серии как можно дольше, чтобы релизёр не столько продолжал раздавать старые серии, а смог сконцентрироваться на новых.

piratbit.org



Скачать Милые обманщицы: Перфекционистки через торрент https://i110.fastpic.ru/big/2019/0325/00/c2d8b9dfd01b188d9686ba3350f2dc00.jpg Скачать фильм Милые обманщицы: Перфекционистки через торрент бесплантно в хорошем качестве Описание:Все в городке Бикон Хейтс - от престижного колледжа до суперуспешных резидентов - кажется идеальным. Но ничто в этом городе не ... 5 10 1
Торрент: Зарегистрирован [2019-04-17 09:19] · скачан: 0 раз
Статус: √ проверено
Размер: 7.66 GB
Как cкачать? Как скачать Милые обманщицы: Перфекционистки через торрент | qTorrent


>> Регистрируемся здесь <<






Отзывы и комментарии о схеме читаем и пишем здесь: ---> Отзывы и комментарии о схеме

Новые благодарочки в телеграм довольных пользователей:
скриншот   скриншот   скриншот   скриншот   скриншот
    Дорогой пользователь! Огромная просьба, поблагодарите релизера, оцените раздачу и оставьте свои комментарий, если Вы скачали Милые обманщицы: Перфекционистки через торрент бесплатно! Внесите свою лепту в развитие PiratBit!
    Комментировать посты могут только пользователи прошедшие не сложную регистрацию
    Показать сообщения:    

    Милые обманщицы: Перфекционистки через торрент
    Скачать бесплатно Милые обманщицы: Перфекционистки
    Милые обманщицы: Перфекционистки скачать торрент
    Милые обманщицы: Перфекционистки смотреть онлайн
    Cкачать фильм Милые обманщицы: Перфекционистки бесплатно
    Милые обманщицы: Перфекционистки скачать торрент в хорошем качестве
    Милые обманщицы: Перфекционистки смотреть онлайн бесплатно в хорошем качестве


    Вы не можете начинать темы
    Вы не можете отвечать на сообщения
    Вы не можете редактировать свои сообщения
    Вы не можете удалять свои сообщения
    Вы не можете голосовать в опросах
    Вы не можете прикреплять файлы к сообщениям
    Вы можете скачивать файлы