MEGA SALE -50% FORZA HORIZON 4 ULTIMATE+ВСЕ DLC+ОНЛАЙН всего за 599р. 299 руб. (супер цена). Внимание количество ограничено!!!

iTunes

1+1

iTunes

мы

iTunes

1

iTunes

Чернобыль

1 сезон

Ральф против интернета

Лицензия

ПШазам

Лицензия

Игра престолов

Лицензия

30
pack

ВАЖНО

!!Акция!!

Alien_RageХит недели

RePack

Resident Evil 21

ИГРА 18+

pack

RePack

Metro:Exodus

!!Акция!!

Alien_Rage

RePack

fifa19

RePack

Assassins Creed: Odyssey

RePack

NEED FOR SPEED™ PAYBACK

3 сезон

9 сезон

Бесстыжие 9 сезон

Все сериалы

все сериалы на PB.wtf

RePack

FAR CRY 5
Ребята, катастрофически не хватает 7730р. для оплаты серверов за ИЮЛЬ (всвязи с блокировками трафик упал в 3 раза), 1-2р., выручайте.
  

Фосси/Вердон / Fosse/Verdon / Сезон: 1 / Серии: 1-8 из 8 (Томас Каил, Адам Бернштейн, Минки Спиро) [2019, драма, биография, музыка, WEB-DLRip] [MVO] (TVShows) piratbit.org

Фосси через торрент piratbit.org

Размер: 6.45 GB | Добавлен: 2 мес. 14 д. назад | Торрент скачан:4 раза
Скачать  

17-04-2019 10:05 Фосси Скачать торрент  

Фосси/Вердон / Fosse/Verdon

Год выпуска: 2019
Страна: США
Жанр: драма, биография, музыка
Продолжительность: ~ 00:55:00
Перевод: Профессиональный (многоголосый закадровый)(TVShows)
Субтитры: нет

Режиссёр: Томас Каил / Thomas Kail, Адам Бернштейн / Adam Bernstein, Минки Спиро / Minkie Spiro

В ролях:
Пол Райзер, Бьянка Маррокин, Ричард Холмс, Келли Баррет, Нэйт Корддри, Эван Хэндлер, Норберт Лео Батц, Ая Кэш, Сэм Рокуэлл, Мишель Уильямс

Описание:
Легендарный хореограф Боб Фосси и танцовщица Гвен Вердон вместе создали десятки великих постановок и изменили Бродвей. Тем временем за кулисами кипели страсти, полные ненависти, любви и измен.



Качество: WEB-DLRip
Формат: AVI
Видео кодек: XviD
Видео: 704x352 (2.00:1), 23.976 fps, XviD build 73 ~2000 kbps avg, 0.34 bit/pixel
Аудио Rus: 48 kHz, AC3 Dolby Digital, 3/2 (L,C,R,l,r) + LFE ch, ~384 kbps

Рип: Ruddle
Реклама отсутствует
Общее
Полное имя : D:\Fosse Verdon Season 1 WEB-DLRip\Fosse.Verdon.s01e01.WEB-DLRip.RGzsRutracker.avi
Формат : AVI
Формат/Информация : Audio Video Interleave
Размер файла : 874 Мбайт
Продолжительность : 51 м. 13 с.
Общий поток : 2387 Кбит/сек
Программа кодирования : VirtualDubMod 1.5.10.3 | www.virtualdub-fr.org || (build 2550/release)
Библиотека кодирования : VirtualDubMod build 2550/release

Видео
Идентификатор : 0
Формат : MPEG-4 Visual
Профиль формата : Advanced Simple@L5
Настройки формата : BVOP2
Параметр BVOP формата : 2
Параметр QPel формата : Нет
Параметр GMC формата : Без точки перехода
Параметр матрицы формата : Default (MPEG)
Идентификатор кодека : XVID
Идентификатор кодека/Подсказка : XviD
Продолжительность : 51 м. 13 с.
Битрейт : 1994 Кбит/сек
Ширина : 704 пикселя
Высота : 352 пикселя
Соотношение сторон : 2,000
Частота кадров : 23,976 (24000/1001) кадра/сек
Цветовое пространство : YUV
Субдискретизация насыщенности : 4:2:0
Битовая глубина : 8 бит
Тип развёртки : Прогрессивная
Метод сжатия : С потерями
Бит/(Пиксели*Кадры) : 0.336
Размер потока : 730 Мбайт (84%)
Библиотека кодирования : XviD 73

Аудио
Идентификатор : 1
Формат : AC-3
Формат/Информация : Audio Coding 3
Идентификатор кодека : 2000
Продолжительность : 51 м. 13 с.
Вид битрейта : Постоянный
Битрейт : 384 Кбит/сек
Каналы : 6 каналов
Расположение каналов : Front: L C R, Side: L R, LFE
Частота : 48,0 КГц
Частота кадров : 31,250 кадров/сек (1536 SPF)
Битовая глубина : 16 бит
Метод сжатия : С потерями
Размер потока : 141 Мбайт (16%)
Выравнивание : Разделение по промежуткам
Продолжительность промежутка : 42 мс. (1,00 видеокадр)
Время предзагрузки промежутка : 500 мс.
ServiceKind/String : Complete Main
скриншот  скриншот  скриншот  
Внимание! Раздача ведётся путём добавления новых серий; при каждом добавлении создётся новый торрент. Чтобы начать докачку новой серии, пользователям необходимо сделать следующее: (1) остановить скачивание, (2) удалить старый торрент у себя из клиента (старые серии удалять не надо), (3) скачать новый торрент и запустить его у себя в клиенте вместо старого, при этом указать клиенту путь в старую папку куда и должно происходить скачивание новых серий.

Ваш клиент при этом должен произвести хеширование (проверку) старой папки (если не производит сам - помогите ему сделать это), и будет докачивать только те серии которых у вас ещё нет. Старые серии при этом не удаляются, а продолжают раздаваться!

Eсли вы уже удалили старые серии, то предотвратить повторную закачку старых серий можно, отжав галочку в соответсвующих местах при запуске нового торрента.
piratbit.org



Скачать Фосси через торрент https://i110.fastpic.ru/big/2019/0416/4e/6e2dec35e0f719d6f37b2893e20bb64e.jpg Скачать фильм Фоссичерез торрент бесплантно в хорошем качестве Описание:Легендарный хореограф Боб Фосси и танцовщица Гвен Вердон вместе создали десятки великих постановок и изменили Бродвей. Тем ... 5 10 1
Торрент: Зарегистрирован [2019-06-08 10:47] · скачан: 4 раз
Статус: √ проверено
Размер: 6.45 GB
Как cкачать? Как скачать Фосси через торрент | qTorrent

% Раздел Тема Автор DL S | L
Зарубежные сериалы [ 28.37 GB ] Фосси/Вердон / Fosse/Verdon / Сезон: 1 / Серии: 1-8 из 8 [2019 биография музыка WEB-DL 1080p] [MVO] killermax2013 Скачать
1 | 0


>> Регистрируемся здесь <<






Отзывы и комментарии о схеме читаем и пишем здесь: ---> Отзывы и комментарии о схеме

Новые благодарочки в телеграм довольных пользователей:
скриншот   скриншот   скриншот   скриншот   скриншот
    Дорогой пользователь! Огромная просьба, поблагодарите релизера, оцените раздачу и оставьте свои комментарий, если Вы скачали Фосси через торрент бесплатно! Внесите свою лепту в развитие PiratBit!
    Комментировать посты могут только пользователи прошедшие не сложную регистрацию
    Показать сообщения:    

    Фосси через торрент
    Скачать бесплатно Фосси
    Фосси скачать торрент
    Фосси смотреть онлайн
    Cкачать фильм Фосси бесплатно
    Фосси скачать торрент в хорошем качестве
    Фосси смотреть онлайн бесплатно в хорошем качестве


    Вы не можете начинать темы
    Вы не можете отвечать на сообщения
    Вы не можете редактировать свои сообщения
    Вы не можете удалять свои сообщения
    Вы не можете голосовать в опросах
    Вы не можете прикреплять файлы к сообщениям
    Вы можете скачивать файлы