MEGA SALE -50% FORZA HORIZON 4 ULTIMATE+ВСЕ DLC+ОНЛАЙН всего за 599р. 299 руб. (супер цена). Внимание количество ограничено!!!

iTunes

1+1

iTunes

мы

iTunes

1

iTunes

Чернобыль

iTunes

Ральф против интернета

Лицензия

ПШазам

Лицензия

Игра престолов

Лицензия

30
pack

ВАЖНО

!!Акция!!

Alien_RageХит недели

RePack

Resident Evil 21

ИГРА 18+

pack

RePack

Metro:Exodus

!!Акция!!

Alien_Rage

RePack

fifa19

RePack

Assassins Creed: Odyssey

RePack

NEED FOR SPEED™ PAYBACK

3 сезон

9 сезон

Бесстыжие 9 сезон

Все сериалы

все сериалы на PB.wtf

RePack

FAR CRY 5
Ребята, катастрофически не хватает 7730р. для оплаты серверов за АВГУСТ (всвязи с блокировками трафик упал в 3 раза), 1-2р., выручайте.
  

Первый мститель: Другая война / Captain America: The Winter Soldier (Энтони Руссо, Джо Руссо) [2014, фантастика, боевик, триллер, приключения, UHD BDRip 2160p] DUB (rus, ukr) + AVO [Ю. Живов] piratbit.org

Первый мститель: Другая война через торрент piratbit.org

Размер: 11.97 GB | Добавлен: 5 мес. назад | Торрент скачан:36 раз
Скачать  

17-04-2019 10:13 Первый мститель: Другая война Скачать торрент  

Первый мститель: Другая война / Captain America: The Winter Soldier«In heroes we trust»

Год выпуска: 2014
Страна: США
Жанр: фантастика, боевик, триллер, приключения
Продолжительность: 02:15:54
Перевод: Дублированный, авторский
Субтитры: Русские (форсированные, полные BD, полные А.Киселенко), украинские (форсированные), Английские (полные, SDH)
Режиссер: Энтони Руссо , Джо Руссо
В ролях:

Крис Эванс (Steve Rogers / Captain America), Скарлетт Йоханссон (Natasha Romanoff / Black Widow), Энтони Маки (Sam Wilson / Falcon), Себастиан Стэн (Bucky Barnes / Winter Soldier), Сэмюэл Л. Джексон (Nick Fury), Роберт Редфорд (Alexander Pierce), Фрэнк Грилло (Brock Rumlow), Коби Смолдерс (Maria Hill), Эмили ВанКэмп (Kate / Agent 13), Максимилиано Эрнандес (Jasper Sitwell), Хейли Этвелл (Peggy Carter), Тоби Джонс (Dr. Arnim Zola)
Описание:
После беспрецедентных событий, впервые собравших вместе команду Мстителей, Стив Роджерс, известный также как Капитан Америка, оседает в Вашингтоне и пытается приспособиться к жизни в современном мире. Но покой этому герою только снится - пытаясь помочь коллеге из агентства Щ. И. Т., Стив оказывается в центре событий, грозящих катастрофой мирового масштаба. Для того, чтобы разоблачить злодейский заговор, Капитан Америка объединяется с Черной вдовой. К ним также присоединяется новый соратник, известный как Сокол, однако никто из них даже не подозревает, на что способен новый враг.
Рейтинг:

MPAA: PG-13 - Детям до 13 лет просмотр не желателен
Качество: UHD BDRip 2160p
Формат: MKV
Видео: HEVC HDR, 6096 Кбит/с, 3840x1600, 23.976 кадр/с, 10 бит
Аудио: Русский (АС3, 6ch, 640 Кбит/с) Дублированный
Аудио: Русский (АС3, 6ch, 640 Кбит/с) | Авторский «Юрий Живов»
Аудио: Украинский ( АС3, 6ch, 384 Кбит/с) Дублированный
Аудио: Английский ( TrueHD, 8ch, 4137 Кбит/с) Оригинал
Аудио: Английский (АС3, 6ch, 640 Кбит/с) Оригинал
Навигация по главам: есть

Общее
Уникальный идентификатор : 188040116179287660987886445367769433080 (0x8D77358445DDA8499BFDF29894BC03F8)
Полное имя : F:\Captain.America.The.Winter.Soldier.2014.2160p.UHD.BDRip.X265.10bit.HDR.Master5.mkv
Формат : Matroska
Версия формата : Version 4
Размер файла : 12,0 Гбайт
Продолжительность : 2 ч. 15 м.
Режим общего битрейта : Переменный
Общий поток : 12,6 Мбит/сек
Название фильма : Captain.America.The.Winter.Soldier.2014.2160p.UHD.BDRip.X265.10bit.HDR.Master5
Дата кодирования : UTC 2019-04-16 17:25:59
Программа кодирования : mkvmerge v7.9.0 ('Birds') 64bit
Библиотека кодирования : libebml v1.3.1 + libmatroska v1.4.2
Обложка : Yes
Attachments : Cover.png / cover.jpg / poster.jpg

Видео
Идентификатор : 1
Формат : HEVC
Формат/Информация : High Efficiency Video Coding
Коммерческое название : HDR10
Профиль формата : Main 10@L5.1@High
Идентификатор кодека : V_MPEGH/ISO/HEVC
Продолжительность : 2 ч. 15 м.
Битрейт : 6096 Кбит/сек
Ширина : 3840 пикселей
Высота : 1600 пикселей
Соотношение сторон : 2,40:1
Режим частоты кадров : Постоянный
Частота кадров : 23,976 (24000/1001) кадра/сек
Цветовое пространство : YUV
Субдискретизация насыщенности : 4:2:0 (Type 2)
Битовая глубина : 10 бит
Бит/(Пиксели*Кадры) : 0.041
Размер потока : 5,79 Гбайт (48%)
Заголовок : Captain.America.The.Winter.Soldier.2014.2160p.UHD.BDRip.X265.10bit.HDR.Master5
Библиотека кодирования : x265 3.0_Au+18-768ab38fd5fd:[Windows][MSVC 1920][64 bit] 10bit
Настройки программы : cpuid=1111039 / frame-threads=5 / numa-pools=36 / wpp / no-pmode / no-pme / no-psnr / no-ssim / log-level=2 / input-csp=1 / input-res=3840x1600 / interlace=0 / total-frames=195503 / level-idc=51 / high-tier=1 / uhd-bd=0 / ref=4 / no-allow-non-conformance / repeat-headers / annexb / aud / hrd / info / hash=0 / no-temporal-layers / no-open-gop / min-keyint=1 / keyint=24 / gop-lookahead=0 / bframes=4 / b-adapt=2 / b-pyramid / bframe-bias=0 / rc-lookahead=25 / lookahead-slices=4 / scenecut=40 / radl=0 / no-splice / no-intra-refresh / ctu=64 / min-cu-size=8 / rect / no-amp / max-tu-size=32 / tu-inter-depth=1 / tu-intra-depth=1 / limit-tu=0 / rdoq-level=2 / dynamic-rd=0.00 / no-ssim-rd / signhide / no-tskip / nr-intra=0 / nr-inter=0 / no-constrained-intra / no-strong-intra-smoothing / max-merge=3 / limit-refs=3 / limit-modes / me=3 / subme=3 / merange=57 / temporal-mvp / weightp / no-weightb / no-analyze-src-pics / deblock=-3:-3 / no-sao / no-sao-non-deblock / rd=4 / no-early-skip / rskip / no-fast-intra / no-tskip-fast / no-cu-lossless / no-b-intra / no-splitrd-skip / rdpenalty=0 / psy-rd=2.00 / psy-rdoq=1.00 / no-rd-refine / no-lossless / cbqpoffs=0 / crqpoffs=0 / rc=crf / crf=17.0 / qcomp=0.60 / qpstep=4 / stats-write=0 / stats-read=0 / vbv-maxrate=160000 / vbv-bufsize=160000 / vbv-init=0.9 / crf-max=0.0 / crf-min=0.0 / ipratio=1.40 / pbratio=1.30 / aq-mode=2 / aq-strength=1.00 / cutree / zone-count=0 / no-strict-cbr / qg-size=32 / no-rc-grain / qpmax=69 / qpmin=0 / no-const-vbv / sar=1 / overscan=0 / videoformat=5 / range=0 / colorprim=9 / transfer=16 / colormatrix=9 / chromaloc=1 / chromaloc-top=2 / chromaloc-bottom=2 / display-window=0 / master-display=G(13250,34500)B(7500,3000)R(34000,16000)WP(15635,16450)L(10000000,20) / max-cll=793,679 / min-luma=0 / max-luma=1023 / log2-max-poc-lsb=8 / vui-timing-info / vui-hrd-info / slices=1 / no-opt-qp-pps / no-opt-ref-list-length-pps / no-multi-pass-opt-rps / scenecut-bias=0.05 / no-opt-cu-delta-qp / no-aq-motion / hdr / hdr-opt / no-dhdr10-opt / no-idr-recovery-sei / analysis-reuse-level=5 / scale-factor=0 / refine-intra=0 / refine-inter=0 / refine-mv=0 / refine-ctu-distortion=0 / no-limit-sao / ctu-info=0 / no-lowpass-dct / refine-analysis-type=0 / copy-pic=1 / max-ausize-factor=1.0 / no-dynamic-refine / no-single-sei / no-hevc-aq / no-svt / qp-adaptation-range=1.00
Default : Да
Forced : Нет
Цветовой диапазон : Limited
Основные цвета : BT.2020
Характеристики трансфера : PQ
Коэффициенты матрицы : BT.2020 non-constant
MasteringDisplay_ColorPrimaries : Display P3
MasteringDisplay_Luminance : min: 0.0020 cd/m2, max: 1000 cd/m2
MaxCLL : 793 cd/m2
MaxFALL : 679 cd/m2

Аудио #1
Идентификатор : 2
Формат : AC-3
Формат/Информация : Audio Coding 3
Коммерческое название : Dolby Digital
Идентификатор кодека : A_AC3
Продолжительность : 2 ч. 15 м.
Вид битрейта : Постоянный
Битрейт : 640 Кбит/сек
Каналы : 6 каналов
Channel layout : L R C LFE Ls Rs
Частота : 48,0 КГц
Частота кадров : 31,250 кадров/сек (1536 SPF)
Битовая глубина : 16 бит
Метод сжатия : С потерями
Размер потока : 622 Мбайт (5%)
Заголовок : BD CEE
Язык : Russian
ServiceKind/String : Complete Main
Default : Да
Forced : Нет

Аудио #2
Идентификатор : 3
Формат : AC-3
Формат/Информация : Audio Coding 3
Коммерческое название : Dolby Digital
Идентификатор кодека : A_AC3
Продолжительность : 2 ч. 15 м.
Вид битрейта : Постоянный
Битрейт : 640 Кбит/сек
Каналы : 6 каналов
Channel layout : L R C LFE Ls Rs
Частота : 48,0 КГц
Частота кадров : 31,250 кадров/сек (1536 SPF)
Битовая глубина : 16 бит
Метод сжатия : С потерями
Размер потока : 622 Мбайт (5%)
Заголовок : AVO Y.Zhivov
Язык : Russian
ServiceKind/String : Complete Main
Default : Нет
Forced : Нет

Аудио #3
Идентификатор : 4
Формат : AC-3
Формат/Информация : Audio Coding 3
Коммерческое название : Dolby Digital
Идентификатор кодека : A_AC3
Продолжительность : 2 ч. 15 м.
Вид битрейта : Постоянный
Битрейт : 384 Кбит/сек
Каналы : 6 каналов
Channel layout : L R C LFE Ls Rs
Частота : 48,0 КГц
Частота кадров : 31,250 кадров/сек (1536 SPF)
Битовая глубина : 16 бит
Метод сжатия : С потерями
Размер потока : 373 Мбайт (3%)
Заголовок : AC3 5.1
Язык : Ukrainian
ServiceKind/String : Complete Main
Default : Нет
Forced : Нет

Аудио #4
Идентификатор : 5
Формат : MLP FBA 16-ch
Формат/Информация : Meridian Lossless Packing FBA with 16-channel presentation
Коммерческое название : Dolby TrueHD with Dolby Atmos
Идентификатор кодека : A_TRUEHD
Продолжительность : 2 ч. 15 м.
Вид битрейта : Переменный
Битрейт : 4137 Кбит/сек
Максимальный битрейт : 7701 Кбит/сек
Каналы : 8 каналов
Channel layout : L R C LFE Ls Rs Lb Rb
Частота : 48,0 КГц
Частота кадров : 1200,000 кадров/сек (40 SPF)
Метод сжатия : Без потерь
Размер потока : 3,93 Гбайт (33%)
Заголовок : Original
Язык : English
Default : Нет
Forced : Нет
Number of dynamic objects : 13
Bed channel count : 1 канал
Bed channel configuration : LFE

Аудио #5
Идентификатор : 6
Формат : AC-3
Формат/Информация : Audio Coding 3
Коммерческое название : Dolby Digital
Идентификатор кодека : A_AC3
Продолжительность : 2 ч. 15 м.
Вид битрейта : Постоянный
Битрейт : 640 Кбит/сек
Каналы : 6 каналов
Channel layout : L R C LFE Ls Rs
Частота : 48,0 КГц
Частота кадров : 31,250 кадров/сек (1536 SPF)
Битовая глубина : 16 бит
Метод сжатия : С потерями
Размер потока : 622 Мбайт (5%)
Заголовок : Original
Язык : English
ServiceKind/String : Complete Main
Default : Нет
Forced : Нет

Текст #1
Идентификатор : 7
Формат : UTF-8
Идентификатор кодека : S_TEXT/UTF8
Идентификатор кодека/Информация : UTF-8 Plain Text
Продолжительность : 2 ч. 12 м.
Битрейт : 1 бит/сек
ElementCount : 38
Размер потока : 1,39 Кбайт (0%)
Заголовок : Forced
Язык : Russian
Default : Да
Forced : Нет

Текст #2
Идентификатор : 8
Формат : UTF-8
Идентификатор кодека : S_TEXT/UTF8
Идентификатор кодека/Информация : UTF-8 Plain Text
Продолжительность : 2 ч. 14 м.
Битрейт : 63 бит/сек
ElementCount : 1542
Размер потока : 62,6 Кбайт (0%)
Заголовок : Full
Язык : Russian
Default : Нет
Forced : Нет

Текст #3
Идентификатор : 9
Формат : UTF-8
Идентификатор кодека : S_TEXT/UTF8
Идентификатор кодека/Информация : UTF-8 Plain Text
Продолжительность : 2 ч. 8 м.
Битрейт : 87 бит/сек
ElementCount : 1360
Размер потока : 82,9 Кбайт (0%)
Заголовок : Full Kisilenko
Язык : Russian
Default : Нет
Forced : Нет

Текст #4
Идентификатор : 10
Формат : UTF-8
Идентификатор кодека : S_TEXT/UTF8
Идентификатор кодека/Информация : UTF-8 Plain Text
Продолжительность : 2 ч. 12 м.
Битрейт : 1 бит/сек
ElementCount : 38
Размер потока : 1,65 Кбайт (0%)
Заголовок : Українські (форсовані)
Язык : Ukrainian
Default : Нет
Forced : Нет

Текст #5
Идентификатор : 11
Формат : UTF-8
Идентификатор кодека : S_TEXT/UTF8
Идентификатор кодека/Информация : UTF-8 Plain Text
Продолжительность : 1 ч. 12 м.
Битрейт : 1 бит/сек
ElementCount : 28
Размер потока : 692 байт (0%)
Заголовок : Forced
Язык : English
Default : Нет
Forced : Нет

Текст #6
Идентификатор : 12
Формат : UTF-8
Идентификатор кодека : S_TEXT/UTF8
Идентификатор кодека/Информация : UTF-8 Plain Text
Продолжительность : 2 ч. 8 м.
Битрейт : 49 бит/сек
ElementCount : 1487
Размер потока : 46,7 Кбайт (0%)
Заголовок : Full
Язык : English
Default : Нет
Forced : Нет

Текст #7
Идентификатор : 13
Формат : UTF-8
Идентификатор кодека : S_TEXT/UTF8
Идентификатор кодека/Информация : UTF-8 Plain Text
Продолжительность : 2 ч. 8 м.
Битрейт : 52 бит/сек
ElementCount : 1646
Размер потока : 49,2 Кбайт (0%)
Заголовок : SDH
Язык : English
Default : Нет
Forced : Нет

Меню
00:00:00.000 : en:Chapter 01
00:03:28.667 : en:Chapter 02
00:13:31.728 : en:Chapter 03
00:17:57.868 : en:Chapter 04
00:22:25.302 : en:Chapter 05
00:33:20.415 : en:Chapter 06
00:41:27.276 : en:Chapter 07
00:51:37.303 : en:Chapter 08
00:58:23.959 : en:Chapter 09
01:07:40.348 : en:Chapter 10
01:16:22.203 : en:Chapter 11
01:24:43.078 : en:Chapter 12
01:32:17.699 : en:Chapter 13
01:37:06.612 : en:Chapter 14
01:49:13.088 : en:Chapter 15
01:55:03.730 : en:Chapter 16
02:01:11.055 : en:Chapter 17
02:06:22.241 : en:Chapter 18
piratbit.org



Скачать Первый мститель: Другая война через торрент https://d.radikal.ru/d23/1904/4f/686bb9a3a0a1.png Скачать фильм Первый мститель: Другая война через торрент бесплантно в хорошем качестве Описание: После беспрецедентных событий, впервые собравших вместе команду Мстителей, Стив Роджерс, известный также как Капитан Америка, ... 10 10 1
Торрент: Зарегистрирован [2019-04-17 10:13] · скачан: 36 раз
Статус: √ проверено
Размер: 11.97 GB
Как cкачать? Как скачать Первый мститель: Другая война через торрент | qTorrent

% Раздел Тема Автор DL S | L
Ultra HD (UHD: 2K, 4K, 8K) — видео сверхвысокой чёткости [ 53.13 GB ] Первый мститель: Другая война / Captain America: The Winter Soldier [2014 UHD BDRemux 2160p] DUB [] +2xAVO bober100 Скачать
2 | 0
Фильмы с авторской озвучкой [ 2.18 GB ] Первый мститель: Другая война / Captain America: The Winter Soldier [2014 BDRip] [AVO] killermax2013 Скачать
1 | 0


>> Регистрируемся здесь <<






Отзывы и комментарии о схеме читаем и пишем здесь: ---> Отзывы и комментарии о схеме

Новые благодарочки в телеграм довольных пользователей:
скриншот   скриншот   скриншот   скриншот   скриншот
    Дорогой пользователь! Огромная просьба, поблагодарите релизера, оцените раздачу и оставьте свои комментарий, если Вы скачали Первый мститель: Другая война через торрент бесплатно! Внесите свою лепту в развитие PiratBit!
    Комментировать посты могут только пользователи прошедшие не сложную регистрацию
    Показать сообщения:    

    Первый мститель: Другая война через торрент
    Скачать бесплатно Первый мститель: Другая война
    Первый мститель: Другая война скачать торрент
    Первый мститель: Другая война смотреть онлайн
    Cкачать фильм Первый мститель: Другая война бесплатно
    Первый мститель: Другая война скачать торрент в хорошем качестве
    Первый мститель: Другая война смотреть онлайн бесплатно в хорошем качестве


    Вы не можете начинать темы
    Вы не можете отвечать на сообщения
    Вы не можете редактировать свои сообщения
    Вы не можете удалять свои сообщения
    Вы не можете голосовать в опросах
    Вы не можете прикреплять файлы к сообщениям
    Вы можете скачивать файлы