Мега распродажа FORZA HORIZON 4 ULTIMATE+ВСЕ DLC+ОНЛАЙН всего за 499р. 349 руб. (супер цена). Внимание количество ограничено!!!

Лицензия

30

iTunes

мы

iTunes

1

1 сезон

Чернобыль

1 сезон

Ральф против интернета

MVO

Покемон. Детектив Пикачу

8 сезон

Игра престолов

iTunes

1+1

ИГРА 18+

pack

ВАЖНО

!!Акция!!

Alien_RageХит недели

RePack

Resident Evil 21
pack

RePack

Metro:Exodus

!!Акция!!

Alien_Rage

RePack

fifa19

RePack

Assassins Creed: Odyssey

RePack

NEED FOR SPEED™ PAYBACK

3 сезон

9 сезон

Бесстыжие 9 сезон

Все сериалы

все сериалы на PB.wtf

RePack

FAR CRY 5
Ребята, катастрофически не хватает 2730р. для оплаты серверов за МАЙ (всвязи с блокировками трафик упал в 3 раза), 1-2р., выручайте.
  

Жизни матрёшки / Матрёшка / Russian Doll / Сезон 1 / Серии 1-8 из 8 (Лесли Хэдланд, Джеми Бэббит , Наташа Лионн) [2019, комедия, драма, WEB-DL 720p] [DVO] (Кубик в Кубе) piratbit.org

Жизни матрёшки через торрент piratbit.org

Раздают: 1 [ 0 KB/s ] Качают: 1 [ 0 KB/s ]
Размер: 4.8 GB | Добавлен: 2 мес. 9 д. назад | Торрент скачан:31 раз
Скачать  

17-04-2019 10:43 Жизни матрёшки Скачать торрент  

Жизни матрёшки / Матрёшка / Russian Doll

Год выпуска: 2019
Страна: США
Жанр: комедия, драма
Продолжительность: ~00:30:00
Перевод: Профессиональный (двухголосый закадровый) - Кубик в Кубе

Субтитры: Английские (SDH)
Режиссер: Лесли Хэдланд, Джеми Бэббит , Наташа Лионн

В ролях: Наташа Лионн, Джордж Алой, Элизабет Эшли, Джессика Уитни Дэвис, Уитни Дэвлин, Брендан Секстон III, Тони Соренсен, Стивен Эдли Гуиргис, Эммануэль Лопес Алонсо, Чарли Барнетт
Описание:Девушка по имени Надя попадает в таинственную временную петлю, которая заставляет её посещать одну и ту же вечеринку в Нью-Йорке и в конце неё умирать, просыпаясь наутро невредимой.


rating

скриншот  

Тип релиза: WEB-DL 720p [Russian.Doll.S01.720p.NF.WEB-DL.DDP5.1.x264-NTG]
Контейнер: MKV
Видео: AVC (x264), 1280x720, 23.976 fps, 16:9, 2050 kb/s
Аудио: Русский, E-AC3, 48 kHz, 6 ch, 640 kb/s
Аудио: Английский, E-AC3, 48 kHz, 6 ch, 640 kb/s
Формат субтитров: Softsub (SRT)
General
Unique ID : 205220139487442440897068067099031942851 (0x9A63F61017206BD0B7DC3AFCB514B6C3)
Complete name : E:\Russian.Doll.S01.720p.WEBDL.CasStudio.TK\Russian.Doll.S01E01.Nothing.in.This.World.Is.Easy.720p.WEBDL.KvK.CasStudio.TK.mkv
Format : Matroska
Format version : Version 4 / Version 2
File size : 590 MiB
Duration : 25 min 0 s
Overall bit rate mode : Variable
Overall bit rate : 3 299 kb/s
Movie name : Russian Doll 01x01 (Nothing in This World Is Easy) - release by messafan for CasStudio.TK
Encoded date : UTC 2019-04-16 14:37:56
Writing application : mkvmerge v6.7.0 ('Back to the Ground') 64bit built on Jan 8 2014 15:10:52
Writing library : libebml v1.3.0 + libmatroska v1.4.1

Video
ID : 1
Format : AVC
Format/Info : Advanced Video Codec
Format profile : Main@L3.1
Format settings : CABAC / 3 Ref Frames
Format settings, CABAC : Yes
Format settings, RefFrames : 3 frames
Codec ID : V_MPEG4/ISO/AVC
Duration : 25 min 0 s
Bit rate mode : Variable
Bit rate : 2 050 kb/s
Maximum bit rate : 3 075 kb/s
Width : 1 280 pixels
Height : 720 pixels
Display aspect ratio : 16:9
Frame rate mode : Constant
Frame rate : 23.976 (24000/1001) FPS
Color space : YUV
Chroma subsampling : 4:2:0
Bit depth : 8 bits
Scan type : Progressive
Bits/(Pixel*Frame) : 0.093
Stream size : 349 MiB (59%)
Writing library : x264 core 148 r2715 7e75228
Encoding settings : cabac=1 / ref=3 / deblock=1:0:0 / analyse=0x1:0x111 / me=umh / subme=10 / psy=1 / psy_rd=1.00:0.00 / mixed_ref=1 / me_range=24 / chroma_me=1 / trellis=2 / 8x8dct=0 / cqm=0 / deadzone=21,11 / fast_pskip=1 / chroma_qp_offset=-2 / threads=8 / lookahead_threads=1 / sliced_threads=0 / nr=0 / decimate=1 / interlaced=0 / bluray_compat=0 / stitchable=1 / constrained_intra=0 / bframes=2 / b_pyramid=0 / b_adapt=2 / b_bias=0 / direct=3 / weightb=1 / open_gop=0 / weightp=2 / keyint=48 / keyint_min=25 / scenecut=0 / intra_refresh=0 / rc_lookahead=48 / rc=2pass / mbtree=1 / bitrate=2050 / ratetol=1.0 / qcomp=0.50 / qpmin=6 / qpmax=51 / qpstep=4 / cplxblur=20.0 / qblur=0.5 / vbv_maxrate=3075 / vbv_bufsize=4100 / nal_hrd=vbr / filler=0 / ip_ratio=1.40 / aq=1:1.00
Default : Yes
Forced : No

Audio #1
ID : 2
Format : AC-3
Format/Info : Audio Coding 3
Format settings, Endianness : Big
Codec ID : A_AC3
Duration : 25 min 0 s
Bit rate mode : Constant
Bit rate : 640 kb/s
Channel(s) : 6 channels
Channel positions : Front: L C R, Side: L R, LFE
Sampling rate : 48.0 kHz
Frame rate : 31.250 FPS (1536 SPF)
Bit depth : 16 bits
Compression mode : Lossy
Stream size : 114 MiB (19%)
Title : KvK DD5.1 @ 640kbps
Language : Russian
Service kind : Complete Main
Default : Yes
Forced : No

Audio #2
ID : 3
Format : AC-3
Format/Info : Audio Coding 3
Format settings, Endianness : Big
Codec ID : A_AC3
Duration : 25 min 0 s
Bit rate mode : Constant
Bit rate : 640 kb/s
Channel(s) : 6 channels
Channel positions : Front: L C R, Side: L R, LFE
Sampling rate : 48.0 kHz
Frame rate : 31.250 FPS (1536 SPF)
Bit depth : 16 bits
Compression mode : Lossy
Stream size : 114 MiB (19%)
Title : English DD5.1 @ 640kbps
Language : English
Service kind : Complete Main
Default : No
Forced : No

Text
ID : 4
Format : UTF-8
Codec ID : S_TEXT/UTF8
Codec ID/Info : UTF-8 Plain Text
Title : SDH
Language : English
Default : No
Forced : No
скриншот  скриншот  скриншот  
piratbit.org



Скачать Жизни матрёшки через торрент https://i109.fastpic.ru/big/2019/0417/83/a70aae55b6fc0c1585d47f6dad71e483.png Скачать фильм Жизни матрёшки через торрент бесплантно в хорошем качестве Описание:Девушка по имени Надя попадает в таинственную временную петлю, которая заставляет её посещать одну и ту же вечеринку в Нью-Йорке и ... 7.7 10 3
Торрент: Зарегистрирован [2019-04-17 10:43] · скачан: 31 раз
Статус: √ проверено
Размер: 4.8 GB
Как cкачать? Как скачать Жизни матрёшки через торрент | qTorrent

% Раздел Тема Автор DL S | L
Зарубежные сериалы [ 7.63 GB ] Жизни матрёшки / Russian Doll / Сезон: 1 / Серии: 1-8 из 8 [2019 WEB-DL 1080p] [MVO] killermax2013 Скачать
1 | 0
Зарубежные сериалы [ 46.7 GB ] Жизни матрёшки / Матрёшка / Russian Doll / Сезон 1 / Серии 1-8 из 8 [2019 UHD WEBRip 2160p] [SDR] Пифагор sheker187 Скачать
1 | 0
Зарубежные сериалы [ 4.81 GB ] Жизни матрёшки / Матрёшка / Russian Doll / Сезон 1 / Серии 1-8 из 8 [2019 WEB-DL 720p] killermax2013 Скачать
2 | 0
Зарубежные сериалы [ 3.83 GB ] Матрёшка / Жизни матрёшки / Russian Doll / Сезон: 1 / Серии: 1-8 из 8 [2019 WEB-DLRip] DUB [Пифагор & BTI Studios] bober100 Скачать
2 | 0
Зарубежные сериалы [ 8.02 GB ] Жизни матрёшки / Матрёшка / Russian Doll / Сезон 1 / Серии 1-8 из 8 [2019 WEB-DL 1080p] killermax2013 Скачать
1 | 0


>> Регистрируемся здесь <<






Отзывы и комментарии о схеме читаем и пишем здесь: ---> Отзывы и комментарии о схеме

Новые благодарочки в телеграм довольных пользователей:
скриншот   скриншот   скриншот   скриншот   скриншот
    Дорогой пользователь! Огромная просьба, поблагодарите релизера, оцените раздачу и оставьте свои комментарий, если Вы скачали Жизни матрёшки через торрент бесплатно! Внесите свою лепту в развитие PiratBit!
    Комментировать посты могут только пользователи прошедшие не сложную регистрацию
    Показать сообщения:    

    Жизни матрёшки через торрент
    Скачать бесплатно Жизни матрёшки
    Жизни матрёшки скачать торрент
    Жизни матрёшки смотреть онлайн
    Cкачать фильм Жизни матрёшки бесплатно
    Жизни матрёшки скачать торрент в хорошем качестве
    Жизни матрёшки смотреть онлайн бесплатно в хорошем качестве


    Вы не можете начинать темы
    Вы не можете отвечать на сообщения
    Вы не можете редактировать свои сообщения
    Вы не можете удалять свои сообщения
    Вы не можете голосовать в опросах
    Вы не можете прикреплять файлы к сообщениям
    Вы можете скачивать файлы