Наша группа ВК в очередной раз забанена мы уходим в Телеграм, присоединяйтесь!!!

Лицензия

30

iTunes

мы

iTunes

1

1 сезон

Чернобыль

iTunes

1+1

iTunes

Закатать в асфальт

8 сезон

Игра престолов

1 сезон

Ральф против интернета

ИГРА 18+

pack

ВАЖНО

!!Акция!!

Alien_RageХит недели

RePack

Resident Evil 21
pack

RePack

Metro:Exodus

!!Акция!!

Alien_Rage

RePack

fifa19

RePack

Assassins Creed: Odyssey

RePack

NEED FOR SPEED™ PAYBACK

3 сезон

9 сезон

Бесстыжие 9 сезон

Все сериалы

все сериалы на PB.wtf

RePack

FAR CRY 5
Ребята, катастрофически не хватает 2730р. для оплаты серверов за АПРЕЛЬ (всвязи с блокировками трафик упал в 3 раза), 1-2р., выручайте.
  

Зыбучий песок / Quicksand / Сезон: 1 / Серии: 1-6 из 6 (Пер-Олав Соренсен) [2019, драма, WEBRip 1080p] [Multi Sub] (Swe, Eng, Ger, Fra, Rus, etc) piratbit.org

Зыбучий песок через торрент piratbit.org

Раздают: 1 [ 0 KB/s ]
Размер: 9.93 GB | Добавлен: 1 мес. 8 д. назад | Торрент скачан:5 раз
Скачать  

17-04-2019 11:43 Зыбучий песок Скачать торрент  

Зыбучий песок / Quicksand
«***»

Производство: Швеция
Год выпуска: 2019
Жанр: драма
Продолжительность: ~ 00:45:00 - серия
Перевод: Отсутствует! [шведский оригинал]
Субтитры: шведские, английские, арабские, немецкие, испанские, русские , и другие
Режиссер: Пер-Олав Соренсен, Lisa Farzaneh

В ролях: Ханна Арден, Felix Sandman, Давид Денсик, Subheib Saleh, Анна Бьёрк, Ребека Хемсе, Iris Herngren, Каллед Мустонен, Маралл Насири, Ella Rappich
Описание фильма:
Массовая стрельба произошла в одной из элитных шведских школ. В этом преступлении обвиняют Майю. На суде все пытаются понять её мотивы и разобраться, кто же она — убийца или жертва?

Качество видео: WEBRip 1080p
Формат: MKV
Видео: AVC, 1920 x 1080, 25.000 fps, ~5700 kbps
Аудио: AC-3, 48 kHz, 6 ch, 384 kbps |Original|
Video
ID : 1
Format : AVC
Format/Info : Advanced Video Codec
Format profile : Main@L4
Format settings : CABAC / 3 Ref Frames
Format settings, CABAC : Yes
Format settings, ReFrames : 3 frames
Codec ID : V_MPEG4/ISO/AVC
Duration : 47 min 14 s
Bit rate mode : Variable
Bit rate : 5 620 kb/s
Maximum bit rate : 8 430 kb/s
Width : 1 920 pixels
Height : 1 080 pixels
Display aspect ratio : 16:9
Frame rate mode : Constant
Frame rate : 25.000 FPS
Color space : YUV
Chroma subsampling : 4:2:0
Bit depth : 8 bits
Scan type : Progressive
Bits/(Pixel*Frame) : 0.108
Stream size : 1.84 GiB (93%)
Writing library : x264 core 148 r2715 7e75228
Encoding settings : cabac=1 / ref=3 / deblock=1:0:0 / analyse=0x1:0x111 / me=umh / subme=10 / psy=1 / psy_rd=1.00:0.00 / mixed_ref=1 / me_range=24 / chroma_me=1 / trellis=2 / 8x8dct=0 / cqm=0 / deadzone=21,11 / fast_pskip=1 / chroma_qp_offset=-2 / threads=8 / lookahead_threads=1 / sliced_threads=0 / nr=0 / decimate=1 / interlaced=0 / bluray_compat=0 / stitchable=1 / constrained_intra=0 / bframes=2 / b_pyramid=0 / b_adapt=2 / b_bias=0 / direct=3 / weightb=1 / open_gop=0 / weightp=2 / keyint=50 / keyint_min=26 / scenecut=0 / intra_refresh=0 / rc_lookahead=50 / rc=2pass / mbtree=1 / bitrate=5620 / ratetol=1.0 / qcomp=0.50 / qpmin=6 / qpmax=51 / qpstep=4 / cplxblur=20.0 / qblur=0.5 / vbv_maxrate=8430 / vbv_bufsize=11240 / nal_hrd=vbr / filler=0 / ip_ratio=1.40 / aq=1:1.00
Default : Yes
Forced : No

Audio
ID : 2
Format : AC-3
Format/Info : Audio Coding 3
Commercial name : Dolby Digital
Codec ID : A_AC3
Duration : 47 min 14 s
Bit rate mode : Constant
Bit rate : 384 kb/s
Channel(s) : 6 channels
Channel layout : L R C LFE Ls Rs
Sampling rate : 48.0 kHz
Frame rate : 31.250 FPS (1536 SPF)
Bit depth : 16 bits
Compression mode : Lossy
Stream size : 130 MiB (6%)
Title : Swedish
Language : Swedish
Service kind : Complete Main
Default : Yes
Forced : No

Text #1
ID : 3
Format : UTF-8
Codec ID : S_TEXT/UTF8
Codec ID/Info : UTF-8 Plain Text
Duration : 2 s 880 ms
Bit rate : 83 b/s
Count of elements : 1
Stream size : 30.0 Bytes (0%)
Title : Forced
Language : Swedish
Default : Yes
Forced : Yes

Text #2
ID : 4
Format : UTF-8
Codec ID : S_TEXT/UTF8
Codec ID/Info : UTF-8 Plain Text
Duration : 44 min 28 s
Bit rate : 68 b/s
Count of elements : 583
Stream size : 22.2 KiB (0%)
Language : English
Default : No
Forced : No

Text #3
ID : 5
Format : UTF-8
Codec ID : S_TEXT/UTF8
Codec ID/Info : UTF-8 Plain Text
Duration : 45 min 1 s
Bit rate : 74 b/s
Count of elements : 648
Stream size : 24.4 KiB (0%)
Title : SDH
Language : English
Default : No
Forced : No

Text #4
ID : 6
Format : UTF-8
Codec ID : S_TEXT/UTF8
Codec ID/Info : UTF-8 Plain Text
Duration : 44 min 25 s
Bit rate : 62 b/s
Count of elements : 510
Stream size : 20.5 KiB (0%)
Language : English
Default : No
Forced : No

Text #5
ID : 7
Format : UTF-8
Codec ID : S_TEXT/UTF8
Codec ID/Info : UTF-8 Plain Text
Duration : 44 min 31 s
Bit rate : 97 b/s
Count of elements : 516
Stream size : 31.9 KiB (0%)
Language : Arabic
Default : No
Forced : No

Text #6
ID : 8
Format : UTF-8
Codec ID : S_TEXT/UTF8
Codec ID/Info : UTF-8 Plain Text
Duration : 44 min 28 s
Bit rate : 56 b/s
Count of elements : 480
Stream size : 18.3 KiB (0%)
Language : Danish
Default : No
Forced : No

Text #7
ID : 9
Format : UTF-8
Codec ID : S_TEXT/UTF8
Codec ID/Info : UTF-8 Plain Text
Duration : 44 min 31 s
Bit rate : 61 b/s
Count of elements : 534
Stream size : 20.0 KiB (0%)
Language : German
Default : No
Forced : No

Text #8
ID : 10
Format : UTF-8
Codec ID : S_TEXT/UTF8
Codec ID/Info : UTF-8 Plain Text
Duration : 44 min 30 s
Bit rate : 102 b/s
Count of elements : 514
Stream size : 33.4 KiB (0%)
Language : Greek
Default : No
Forced : No

Text #9
ID : 11
Format : UTF-8
Codec ID : S_TEXT/UTF8
Codec ID/Info : UTF-8 Plain Text
Duration : 44 min 31 s
Bit rate : 58 b/s
Count of elements : 515
Stream size : 19.2 KiB (0%)
Language : Spanish
Default : No
Forced : No

Text #10
ID : 12
Format : UTF-8
Codec ID : S_TEXT/UTF8
Codec ID/Info : UTF-8 Plain Text
Duration : 44 min 31 s
Bit rate : 65 b/s
Count of elements : 544
Stream size : 21.3 KiB (0%)
Title : European
Language : Spanish
Default : No
Forced : No

Text #11
ID : 13
Format : UTF-8
Codec ID : S_TEXT/UTF8
Codec ID/Info : UTF-8 Plain Text
Duration : 44 min 28 s
Bit rate : 53 b/s
Count of elements : 471
Stream size : 17.5 KiB (0%)
Language : Finnish
Default : No
Forced : No

Text #12
ID : 14
Format : UTF-8
Codec ID : S_TEXT/UTF8
Codec ID/Info : UTF-8 Plain Text
Duration : 44 min 31 s
Bit rate : 59 b/s
Count of elements : 518
Stream size : 19.3 KiB (0%)
Language : French
Default : No
Forced : No

Text #13
ID : 15
Format : UTF-8
Codec ID : S_TEXT/UTF8
Codec ID/Info : UTF-8 Plain Text
Duration : 44 min 30 s
Bit rate : 91 b/s
Count of elements : 537
Stream size : 29.8 KiB (0%)
Language : Hebrew
Default : No
Forced : No

Text #14
ID : 16
Format : UTF-8
Codec ID : S_TEXT/UTF8
Codec ID/Info : UTF-8 Plain Text
Duration : 44 min 31 s
Bit rate : 58 b/s
Count of elements : 515
Stream size : 19.2 KiB (0%)
Language : Indonesian
Default : No
Forced : No

Text #15
ID : 17
Format : UTF-8
Codec ID : S_TEXT/UTF8
Codec ID/Info : UTF-8 Plain Text
Duration : 44 min 31 s
Bit rate : 57 b/s
Count of elements : 514
Stream size : 18.8 KiB (0%)
Language : Italian
Default : No
Forced : No

Text #16
ID : 18
Format : UTF-8
Codec ID : S_TEXT/UTF8
Codec ID/Info : UTF-8 Plain Text
Duration : 44 min 30 s
Bit rate : 58 b/s
Count of elements : 641
Stream size : 19.0 KiB (0%)
Language : Japanese
Default : No
Forced : No

Text #17
ID : 19
Format : UTF-8
Codec ID : S_TEXT/UTF8
Codec ID/Info : UTF-8 Plain Text
Duration : 44 min 31 s
Bit rate : 72 b/s
Count of elements : 516
Stream size : 23.7 KiB (0%)
Language : Korean
Default : No
Forced : No

Text #18
ID : 20
Format : UTF-8
Codec ID : S_TEXT/UTF8
Codec ID/Info : UTF-8 Plain Text
Duration : 44 min 28 s
Bit rate : 58 b/s
Count of elements : 480
Stream size : 19.0 KiB (0%)
Language : Norwegian Bokmal
Default : No
Forced : No

Text #19
ID : 21
Format : UTF-8
Codec ID : S_TEXT/UTF8
Codec ID/Info : UTF-8 Plain Text
Duration : 44 min 29 s
Bit rate : 56 b/s
Count of elements : 489
Stream size : 18.5 KiB (0%)
Language : Dutch
Default : No
Forced : No

Text #20
ID : 22
Format : UTF-8
Codec ID : S_TEXT/UTF8
Codec ID/Info : UTF-8 Plain Text
Duration : 44 min 31 s
Bit rate : 56 b/s
Count of elements : 516
Stream size : 18.4 KiB (0%)
Language : Polish
Default : No
Forced : No

Text #21
ID : 23
Format : UTF-8
Codec ID : S_TEXT/UTF8
Codec ID/Info : UTF-8 Plain Text
Duration : 44 min 31 s
Bit rate : 59 b/s
Count of elements : 515
Stream size : 19.4 KiB (0%)
Language : Portuguese
Default : No
Forced : No

Text #22
ID : 24
Format : UTF-8
Codec ID : S_TEXT/UTF8
Codec ID/Info : UTF-8 Plain Text
Duration : 44 min 31 s
Bit rate : 57 b/s
Count of elements : 515
Stream size : 18.7 KiB (0%)
Title : Brazilian
Language : Portuguese
Default : No
Forced : No

Text #23
ID : 25
Format : UTF-8
Codec ID : S_TEXT/UTF8
Codec ID/Info : UTF-8 Plain Text
Duration : 44 min 31 s
Bit rate : 67 b/s
Count of elements : 514
Stream size : 22.2 KiB (0%)
Language : Romanian
Default : No
Forced : No

Text #24
ID : 26
Format : UTF-8
Codec ID : S_TEXT/UTF8
Codec ID/Info : UTF-8 Plain Text
Duration : 44 min 31 s
Bit rate : 120 b/s
Count of elements : 516
Stream size : 39.2 KiB (0%)
Language : Russian
Default : No
Forced : No

Text #25
ID : 27
Format : UTF-8
Codec ID : S_TEXT/UTF8
Codec ID/Info : UTF-8 Plain Text
Duration : 45 min 4 s
Bit rate : 59 b/s
Count of elements : 496
Stream size : 19.6 KiB (0%)
Title : SDH
Language : Swedish
Default : No
Forced : No

Text #26
ID : 28
Format : UTF-8
Codec ID : S_TEXT/UTF8
Codec ID/Info : UTF-8 Plain Text
Duration : 44 min 28 s
Bit rate : 59 b/s
Count of elements : 480
Stream size : 19.4 KiB (0%)
Language : Swedish
Default : No
Forced : No

Text #27
ID : 29
Format : UTF-8
Codec ID : S_TEXT/UTF8
Codec ID/Info : UTF-8 Plain Text
Duration : 44 min 31 s
Bit rate : 156 b/s
Count of elements : 515
Stream size : 50.9 KiB (0%)
Language : Thai
Default : No
Forced : No

Text #28
ID : 30
Format : UTF-8
Codec ID : S_TEXT/UTF8
Codec ID/Info : UTF-8 Plain Text
Duration : 44 min 31 s
Bit rate : 61 b/s
Count of elements : 518
Stream size : 20.2 KiB (0%)
Language : Turkish
Default : No
Forced : No

Text #29
ID : 31
Format : UTF-8
Codec ID : S_TEXT/UTF8
Codec ID/Info : UTF-8 Plain Text
Duration : 44 min 31 s
Bit rate : 59 b/s
Count of elements : 515
Stream size : 19.3 KiB (0%)
Title : Simplified
Language : Chinese
Default : No
Forced : No

Text #30
ID : 32
Format : UTF-8
Codec ID : S_TEXT/UTF8
Codec ID/Info : UTF-8 Plain Text
Duration : 44 min 31 s
Bit rate : 59 b/s
Count of elements : 515
Stream size : 19.5 KiB (0%)
Title : Traditional
Language : Chinese
Default : No
Forced : No

скриншот  скриншот  скриншот  

piratbit.org



Скачать Зыбучий песок через торрент https://i1.imageban.ru/out/2019/04/08/f2e20aa544d59a3f191db26ad760b43b.png Скачать фильм Зыбучий песок через торрент бесплантно в хорошем качестве Описание фильма: Массовая стрельба произошла в одной из элитных шведских школ. В этом преступлении обвиняют Майю. На суде все пытаются ... 2 10 3
Торрент: Зарегистрирован [2019-04-17 11:43] · скачан: 5 раз
Статус: T временная
Размер: 9.93 GB
Как cкачать? Как скачать Зыбучий песок через торрент | qTorrent

% Раздел Тема Автор DL S | L
Зарубежные сериалы [ 10.67 GB ] Зыбучий песок / Quicksand / Сезон: 1 / Серии: 1-6 из 6 [2019 WEB-DL 1080p] MVO [NewStudio] bober100 Скачать
2 | 0
Зарубежные сериалы [ 4.64 GB ] Зыбучий песок / Quicksand / Сезон: 1 / Серии: 1-6 из 6 [2019 WEB-DL 720p] [MVO] killermax2013 Скачать
3 | 0


>> Регистрируемся здесь <<






Отзывы и комментарии о схеме читаем и пишем здесь: ---> Отзывы и комментарии о схеме

Новые благодарочки в телеграм довольных пользователей:
скриншот   скриншот   скриншот   скриншот   скриншот
    Дорогой пользователь! Огромная просьба, поблагодарите релизера, оцените раздачу и оставьте свои комментарий, если Вы скачали Зыбучий песок через торрент бесплатно! Внесите свою лепту в развитие PiratBit!
    Комментировать посты могут только пользователи прошедшие не сложную регистрацию
    Показать сообщения:    

    Зыбучий песок через торрент
    Скачать бесплатно Зыбучий песок
    Зыбучий песок скачать торрент
    Зыбучий песок смотреть онлайн
    Cкачать фильм Зыбучий песок бесплатно
    Зыбучий песок скачать торрент в хорошем качестве
    Зыбучий песок смотреть онлайн бесплатно в хорошем качестве


    Вы не можете начинать темы
    Вы не можете отвечать на сообщения
    Вы не можете редактировать свои сообщения
    Вы не можете удалять свои сообщения
    Вы не можете голосовать в опросах
    Вы не можете прикреплять файлы к сообщениям
    Вы можете скачивать файлы