MEGA SALE -50% FORZA HORIZON 4 ULTIMATE+ВСЕ DLC+ОНЛАЙН всего за 599р. 299 руб. (супер цена). Внимание количество ограничено!!!

iTunes

1+1

iTunes

мы

iTunes

1

iTunes

Чернобыль

1 сезон

Ральф против интернета

Лицензия

ПШазам

Лицензия

Игра престолов

Лицензия

30
pack

ВАЖНО

!!Акция!!

Alien_RageХит недели

RePack

Resident Evil 21

ИГРА 18+

pack

RePack

Metro:Exodus

!!Акция!!

Alien_Rage

RePack

fifa19

RePack

Assassins Creed: Odyssey

RePack

NEED FOR SPEED™ PAYBACK

3 сезон

9 сезон

Бесстыжие 9 сезон

Все сериалы

все сериалы на PB.wtf

RePack

FAR CRY 5
Ребята, катастрофически не хватает 7730р. для оплаты серверов за ИЮЛЬ (всвязи с блокировками трафик упал в 3 раза), 1-2р., выручайте.
  

Убивая Еву / Killing Eve / Сезон: 2 / Серии: 1-8 из 8 (Джон Ист, Дэймон Томас, Гарри Брэдбир) [2019, Триллер, драма, WEB-DL 1080p] [MVO] (TVShows) piratbit.org

Убивая Еву через торрент piratbit.org

Размер: 18.42 GB | Добавлен: 2 мес. 18 д. назад | Торрент скачан:10 раз
Скачать  

17-04-2019 12:01 Убивая Еву Скачать торрент  

Убивая Еву / Killing Eve
Год выпуска: 2019
Страна: США, Великобритания
Жанр: Триллер, драма
Продолжительность: ~ 00:43:00
Перевод: Профессиональный (многоголосый закадровый) | TVShows
Режиссёр: Джон Ист, Дэймон Томас, Гарри Брэдбир
В ролях: Сандра О, Джоди Комер, Фиона Шоу, Ким Бодния, Оуэн МакДоннел, Шон Делани, Кирби Хауэлл-Баптисте, Даррен Бойд, Дэвид Хэйгб, Дэвид Бертран
Описание: Триллер о наемной убийце с русскими корнями и мелодичным псевдонимом Вилланель. В ходе очередного задания эта безжалостная особа сталкивается с достойным противником — скромной сотрудницей спецслужб, которая отчаянно хочет изменить свою скучную жизнь.

rating


Качество: WEB-DL 1080p
Контейнер: MKV
Видео: 1920x1080, 23.976 fps, MPEG-4 AVC, ~6700 Кбит/сек
Аудио Rus: 48 kHz, AC3, 3/2 (L,C,R,l,r) + LFE ch, 384 kbps | TVShows
Аудио Eng: 48 kHz, E-AC3, 3/2 (L,C,R,l,r) + LFE ch, ~640.00 kbps
Субтитры: Английские
Реклама: Отсутствует
General
Unique ID : 94396858089289786774060612352113252893 (0x47042C6EC1E3F38FD42BCF307D4E1A1D)
Complete name : E:\Killing.Eve.S02.1080p.TVShows\Killing.Eve.S02E01.1080p.TVShows.mkv
Format : Matroska
Format version : Version 4 / Version 2
File size : 2.28 GiB
Duration : 41 min 56 s
Overall bit rate : 7 791 kb/s
Encoded date : UTC 2019-04-11 12:24:09
Writing application : mkvmerge v31.0.0 ('Dolores In A Shoestand') 64-bit
Writing library : libebml v1.3.6 + libmatroska v1.4.9

Video
ID : 1
Format : AVC
Format/Info : Advanced Video Codec
Format profile : High@L4
Format settings : CABAC / 4 Ref Frames
Format settings, CABAC : Yes
Format settings, RefFrames : 4 frames
Codec ID : V_MPEG4/ISO/AVC
Duration : 41 min 56 s
Bit rate mode : Constant
Bit rate : 6 612 kb/s
Nominal bit rate : 10 000 kb/s
Width : 1 920 pixels
Height : 1 080 pixels
Display aspect ratio : 16:9
Frame rate mode : Constant
Frame rate : 25.000 FPS
Color space : YUV
Chroma subsampling : 4:2:0
Bit depth : 8 bits
Scan type : Progressive
Bits/(Pixel*Frame) : 0.128
Stream size : 1.94 GiB (85%)
Default : Yes
Forced : No
Color range : Limited
Color primaries : BT.709
Transfer characteristics : BT.709
Matrix coefficients : BT.709

Audio #1
ID : 2
Format : AC-3
Format/Info : Audio Coding 3
Format settings, Endianness : Big
Codec ID : A_AC3
Duration : 41 min 56 s
Bit rate mode : Constant
Bit rate : 384 kb/s
Channel(s) : 6 channels
Channel positions : Front: L C R, Side: L R, LFE
Sampling rate : 48.0 kHz
Frame rate : 31.250 FPS (1536 SPF)
Bit depth : 16 bits
Compression mode : Lossy
Stream size : 115 MiB (5%)
Title : TVShows
Language : Russian
Service kind : Complete Main
Default : Yes
Forced : Yes

Audio #2
ID : 3
Format : E-AC-3
Format/Info : Enhanced Audio Coding 3
Format settings, Endianness : Big
Codec ID : A_EAC3
Duration : 41 min 56 s
Bit rate mode : Constant
Bit rate : 640 kb/s
Channel(s) : 6 channels
Channel positions : Front: L C R, Side: L R, LFE
Sampling rate : 48.0 kHz
Frame rate : 187.500 FPS (256 SPF)
Compression mode : Lossy
Stream size : 192 MiB (8%)
Title : Original
Language : English
Service kind : Complete Main
Default : No
Forced : No

Text
ID : 4
Format : UTF-8
Codec ID : S_TEXT/UTF8
Codec ID/Info : UTF-8 Plain Text
Title : English
Language : English
Default : No
Forced : No

скриншот  скриншот  скриншот  
Внимание! Раздача ведётся путём добавления новых серий; при каждом добавлении создётся новый торрент. Чтобы начать докачку новой серии, пользователям необходимо сделать следующее: (1) остановить скачивание, (2) удалить старый торрент у себя из клиента (старые серии удалять не надо), (3) скачать новый торрент и запустить его у себя в клиенте вместо старого, при этом указать клиенту путь в старую папку куда и должно происходить скачивание новых серий.

Ваш клиент при этом должен произвести хеширование (проверку) старой папки (если не производит сам - помогите ему сделать это), и будет докачивать только те серии которых у вас ещё нет. Старые серии при этом не удаляются, а продолжают раздаваться!

Eсли вы уже удалили старые серии, то предотвратить повторную закачку старых серий можно, отжав галочку в соответсвующих местах при запуске нового торрента.
piratbit.org



Скачать Убивая Еву через торрент https://i106.fastpic.ru/big/2018/1124/ad/212389efa3152d4d4daeb7176eeef8ad.jpg Скачать фильм Убивая Еву через торрент бесплантно в хорошем качестве Описание: Триллер о наемной убийце с русскими корнями и мелодичным псевдонимом Вилланель. В ходе очередного задания эта безжалостная особа ... 8.3 10 3
Торрент: Зарегистрирован [2019-06-03 18:54] · скачан: 10 раз
Статус: √ проверено
Размер: 18.42 GB
Как cкачать? Как скачать Убивая Еву через торрент | qTorrent

% Раздел Тема Автор DL S | L
Зарубежные сериалы [ 4.62 GB ] Убивая Еву / Killing Eve / Сезон: 2 / Серии: 1-8 из 8 [2019 . WEB-DLRip] MVO [LostFilm] bober100 Скачать
3 | 0
Зарубежные сериалы [ 18.96 GB ] Убивая Еву / Killing Eve / Сезон: 2 / Серии: 1-8 из 8 [2019 WEB-DL 1080p] [MVO] killermax2013 Скачать
4 | 0
Зарубежные сериалы [ 4.32 GB ] Убивая Еву / Killing Eve / Сезон: 2 / Серии: 1-8 из 8 [2019 WEB-DLRip] [MVO] killermax2013 Скачать
1 | 0
Зарубежные сериалы [ 5.66 GB ] Убивая Еву / Killing Eve / Сезон: 2 / Серии: 1-8 из 8 [2019 WEB-DLRip] [MVO] killermax2013 Скачать
2 | 0


>> Регистрируемся здесь <<






Отзывы и комментарии о схеме читаем и пишем здесь: ---> Отзывы и комментарии о схеме

Новые благодарочки в телеграм довольных пользователей:
скриншот   скриншот   скриншот   скриншот   скриншот
    Дорогой пользователь! Огромная просьба, поблагодарите релизера, оцените раздачу и оставьте свои комментарий, если Вы скачали Убивая Еву через торрент бесплатно! Внесите свою лепту в развитие PiratBit!
    Комментировать посты могут только пользователи прошедшие не сложную регистрацию
    Показать сообщения:    

    Убивая Еву через торрент
    Скачать бесплатно Убивая Еву
    Убивая Еву скачать торрент
    Убивая Еву смотреть онлайн
    Cкачать фильм Убивая Еву бесплатно
    Убивая Еву скачать торрент в хорошем качестве
    Убивая Еву смотреть онлайн бесплатно в хорошем качестве


    Вы не можете начинать темы
    Вы не можете отвечать на сообщения
    Вы не можете редактировать свои сообщения
    Вы не можете удалять свои сообщения
    Вы не можете голосовать в опросах
    Вы не можете прикреплять файлы к сообщениям
    Вы можете скачивать файлы