Наша группа ВК в очередной раз забанена мы уходим в Телеграм, присоединяйтесь!!!

Лицензия

30

iTunes

Как приручить дракона 3

iTunes

1

1 сезон

Чернобыль

iTunes

Снегоуборщик

iTunes

Закатать в асфальт

8 сезон

Игра престолов

iTunes

Ральф против интернета Хит недели

ИГРА 18+

pack

ВАЖНО

!!Акция!!

Alien_RageХит недели

RePack

Resident Evil 21
pack

RePack

Metro:Exodus

!!Акция!!

Alien_Rage

RePack

fifa19

RePack

Assassins Creed: Odyssey

RePack

NEED FOR SPEED™ PAYBACK

3 сезон

9 сезон

Бесстыжие 9 сезон

Все сериалы

все сериалы на PB.wtf

RePack

FAR CRY 5
Ребята, катастрофически не хватает 2730р. для оплаты серверов за АПРЕЛЬ (всвязи с блокировками трафик упал в 3 раза), 1-2р., выручайте.
  

Нация убийц / Assassination Nation (Сэм Левинсон) [2018, боевик, триллер, драма, BDRip 720p, 60 fps] Дубляж [iTunes] piratbit.org

Нация убийц через торрент piratbit.org

Раздают: 2 [ 0 KB/s ]
Размер: 10.78 GB | Добавлен: 1 мес. 5 д. назад | Торрент скачан:42 раза
Скачать  

17-04-2019 14:30 Нация убийц Скачать торрент  

Нация убийц / Assassination Nation«Вы сами напросились»

Год выпуска: 2018
Страна: США
Жанр: боевик, триллер, драма, комедия, криминал
Продолжительность: 01:47:59
Перевод: Дублированный | iTunes
Субтитры: английские
Режиссер: Сэм Левинсон
В ролях:

Одесса Янг (Lily), Абра (Em), Сьюки Уотерхаус (Sarah), Хари Неф (Bex), Колман Доминго (Principal Turrell), Дэнни Рамирес (Diamond), Джоэл МакХэйл (Nick Mathers), Мод Апатоу (Grace), Коди Кристиан (Johnny), Билл Скарсгард (Mark), Каллен Мосс (Mayor Bartlett), Белла Торн (Reagan)
Описание:
Селфи, эмоджи, снэпчаты и секстинг - вот в чем хороши старшеклассница Лили и три её лучшие подруги. Гормоны бурлят, и девушки живут в мире вечеринок, интрижек, обсуждения парней и модных трендов. Когда неизвестный хакер выкладывает в открытый доступ личные фотографии и переписку мэра их родного города Салема, выясняется, что ярый поборник семейных ценностей любит нетрадиционные развлечения. На пресс-конференции посрамлённый мэр пускает себе пулю в лоб, но на этом безумие в Салеме не заканчивается - неугомонный хакер выставляет напоказ подноготную директора местной школы, а затем и почти всех жителей города.
Рейтинг:

MPAA: R - Лицам до 17 лет обязательно присутствие взрослого
Качество: BDRip 720p
Формат: MKV
Видео: AVC | 1280 x 536 | 59.940 fps | 12.1 Мбит/сек
Аудио №1: AC-3 | 5.1 | 48 kHz | 384 Кбит/сек | 16 bit | Дубляж | RUS |
Аудио №2: DTS-HD MA | 5.1 | 48 kHz | 1509 Кбит/сек | 24 bit | Original | ENG |
Навигация по главам: есть

General
Unique ID : 276765251437253916011289721026889321204 (0xD0370C6C852C6AD658942B14D67F0AF4)
Complete name : D:\2018 Нация убийц BDRip 720p 60 fps.mkv
Format : Matroska
Format version : Version 4 / Version 2
File size : 10.8 GiB
Duration : 1h 47mn
Overall bit rate mode : Variable
Overall bit rate : 14.3 Mbps
Movie name : Нация убийц / Assassination Nation
Encoded date : UTC 2019-03-04 20:35:52
Writing application : mkvmerge v22.0.0 ('At The End Of The World') 64-bit
Writing library : libebml v1.3.5 + libmatroska v1.4.8
DURATION : 01:46:45.980000000
NUMBER_OF_FRAMES : 1583
NUMBER_OF_BYTES : 52873
_STATISTICS_WRITING_APP : mkvmerge v22.0.0 ('At The End Of The World') 64-bit
_STATISTICS_WRITING_DATE_UTC : 2019-03-04 20:35:52
_STATISTICS_TAGS : BPS DURATION NUMBER_OF_FRAMES NUMBER_OF_BYTES
Video #1
ID : 1
Format : AVC
Format/Info : Advanced Video Codec
Format profile : High@L4.1
Format settings, CABAC : Yes
Format settings, ReFrames : 8 frames
Codec ID : V_MPEG4/ISO/AVC
Duration : 1h 47mn
Bit rate : 12.1 Mbps
Nominal bit rate : 10 000 Kbps
Width : 1 280 pixels
Height : 536 pixels
Display aspect ratio : 2.40:1
Frame rate : 59.940 fps
Color space : YUV
Chroma subsampling : 4:2:0
Bit depth : 8 bits
Scan type : Progressive
Bits/(Pixel*Frame) : 0.293
Stream size : 9.09 GiB (84%)
Writing library : x264 core 146 r2538 121396c
Encoding settings : cabac=1 / ref=8 / deblock=1:-2:-2 / analyse=0x3:0x113 / me=umh / subme=9 / psy=1 / psy_rd=1.00:0.25 / mixed_ref=1 / me_range=32 / chroma_me=1 / trellis=2 / 8x8dct=1 / cqm=0 / deadzone=6,6 / fast_pskip=1 / chroma_qp_offset=-4 / threads=12 / lookahead_threads=2 / sliced_threads=0 / nr=0 / decimate=0 / interlaced=0 / bluray_compat=0 / constrained_intra=0 / bframes=3 / b_pyramid=2 / b_adapt=2 / b_bias=0 / direct=3 / weightb=1 / open_gop=0 / weightp=2 / keyint=600 / keyint_min=60 / scenecut=40 / intra_refresh=0 / rc_lookahead=60 / rc=2pass / mbtree=1 / bitrate=10000 / ratetol=1.0 / qcomp=0.80 / qpmin=0 / qpmax=69 / qpstep=4 / cplxblur=20.0 / qblur=0.5 / vbv_maxrate=50000 / vbv_bufsize=50000 / nal_hrd=none / filler=0 / ip_ratio=1.10 / aq=1:0.50
Language : English
Default : Yes
Forced : No
DURATION : 01:47:59.440000000
NUMBER_OF_FRAMES : 388378
NUMBER_OF_BYTES : 8064140215
_STATISTICS_WRITING_APP : mkvmerge v22.0.0 ('At The End Of The World') 64-bit
_STATISTICS_WRITING_DATE_UTC : 2019-03-04 20:35:52
_STATISTICS_TAGS : BPS DURATION NUMBER_OF_FRAMES NUMBER_OF_BYTES
Audio #2
ID : 2
Format : AC-3
Format/Info : Audio Coding 3
Mode extension : CM (complete main)
Format settings, Endianness : Big
Codec ID : A_AC3
Duration : 1h 47mn
Bit rate mode : Constant
Bit rate : 384 Kbps
Channel(s) : 6 channels
Channel positions : Front: L C R, Side: L R, LFE
Sampling rate : 48.0 KHz
Bit depth : 16 bits
Compression mode : Lossy
Stream size : 297 MiB (3%)
Title : iTunes
Language : Russian
Default : Yes
Forced : Yes
Audio #3
ID : 3
Format : DTS
Format/Info : Digital Theater Systems
Format profile : MA / Core
Codec ID : A_DTS
Duration : 1h 47mn
Bit rate mode : Variable
Bit rate : 1 561 Kbps / 1 510 Kbps
Channel(s) : 6 channels
Channel positions : Front: L C R, Side: L R, LFE
Sampling rate : 48.0 KHz
Bit depth : 24 bits
Compression mode : Lossless / Lossy
Title : Original
Language : English
Default : No
Forced : No
Text #4
ID : 4
Format : UTF-8
Codec ID : S_TEXT/UTF8
Codec ID/Info : UTF-8 Plain Text
Title : Full
Language : English
Default : No
Forced : No
Text #5
ID : 5
Format : UTF-8
Codec ID : S_TEXT/UTF8
Codec ID/Info : UTF-8 Plain Text
Title : SDH
Language : English
Default : No
Forced : No
Menu
00:00:00.000 : :Chapter 01
00:22:06.366 : :Chapter 02
00:43:51.712 : :Chapter 03
01:01:11.334 : :Chapter 04
01:16:31.169 : :Chapter 05
01:21:47.694 : :Chapter 06
01:28:27.135 : :Chapter 07
01:39:32.883 : :Chapter 08
01:47:58.513 : :Chapter 09
piratbit.org



Скачать Нация убийц через торрент https://a.radikal.ru/a21/1904/86/476086071656.png Скачать фильм Нация убийц через торрент бесплантно в хорошем качестве Описание: Селфи, эмоджи, снэпчаты и секстинг - вот в чем хороши старшеклассница Лили и три её лучшие подруги. Гормоны бурлят, и девушки ... 10 10 3
Торрент: Зарегистрирован [2019-04-17 14:30] · скачан: 42 раз
Статус: √ проверено
Размер: 10.78 GB
Как cкачать? Как скачать Нация убийц через торрент | qTorrent

% Раздел Тема Автор DL S | L


>> Регистрируемся здесь <<






Отзывы и комментарии о схеме читаем и пишем здесь: ---> Отзывы и комментарии о схеме

Новые благодарочки в телеграм довольных пользователей:
скриншот   скриншот   скриншот   скриншот   скриншот
    Дорогой пользователь! Огромная просьба, поблагодарите релизера, оцените раздачу и оставьте свои комментарий, если Вы скачали Нация убийц через торрент бесплатно! Внесите свою лепту в развитие PiratBit!
    Комментировать посты могут только пользователи прошедшие не сложную регистрацию
    Показать сообщения:    

    Нация убийц через торрент
    Скачать бесплатно Нация убийц
    Нация убийц скачать торрент
    Нация убийц смотреть онлайн
    Cкачать фильм Нация убийц бесплатно
    Нация убийц скачать торрент в хорошем качестве
    Нация убийц смотреть онлайн бесплатно в хорошем качестве


    Вы не можете начинать темы
    Вы не можете отвечать на сообщения
    Вы не можете редактировать свои сообщения
    Вы не можете удалять свои сообщения
    Вы не можете голосовать в опросах
    Вы не можете прикреплять файлы к сообщениям
    Вы можете скачивать файлы