ВНИМАНИЕ!!! Роскомнадзор заблокировал piratbit.org в РФ навсегда, просьба установить наш плагин который откроет доступ из РФ, для Хром, Ябраузер, Опера -> Mozilla FireFox и перейти на pb.wtf. о плагине

Лицензия

30

MVO

Как приручить дракона 3

11 сезон

1

1 сезон

гринч

iTunes

Стекло

iTunes

Клаустрофобы

8 сезон

Игра престолов

iTunes

Ральф против интернета Хит недели

ИГРА 18+

pack

ВАЖНО

!!Акция!!

Alien_RageХит недели

RePack

Resident Evil 21
pack

RePack

Metro:Exodus

!!Акция!!

Alien_Rage

RePack

fifa19

RePack

Assassins Creed: Odyssey

RePack

NEED FOR SPEED™ PAYBACK

3 сезон

9 сезон

Бесстыжие 9 сезон

Все сериалы

все сериалы на PB.wtf

RePack

FAR CRY 5
Ребята, критически не успеваем дособрать 3200р. для оплаты серверов за Март (всвязи с блокировками трафик упал в 3 раза), 1-2р., выручайте.
  

Идеальная западня / Welcome Home (Джордж Рэтлифф) [2018, триллер, BDRip 1080p, 60 fps] Дубляж [iTunes] piratbit.org

Идеальная западня через торрент piratbit.org

Раздают: 14 [ 175 KB/s ]
Размер: 9.49 GB | Добавлен: 3 д. назад | Торрент скачан:51 раз
Скачать  

17-04-2019 14:37 Идеальная западня Скачать торрент  

Идеальная западня / Welcome Home««Измена ранит. Ревность убивает»»

Год выпуска: 2018
Страна: США
Жанр: триллер
Продолжительность: 01:37:51
Перевод: Дублированный | iTunes
Субтитры: Английские (полные, SDH)
Режиссер: Джордж Рэтлифф
В ролях:

Эмили Ратаковски (Cassie Ryerson), Аарон Пол (Bryan Palmer), Риккардо Скамарчо (Federico), Кэти Луиз Саундерс (Alessandra), Элис Беллагамба (Isabella), Франческо Аквароли (Eduardo), Евгений Крылов (Russian Teen #1), Игорь Михайлов (Russian Teen #2), Robert Babin (Middle Aged Man), Sam Mane (Indian Man), Nav Ghotra (Indian Woman), Дафна Александр (Young Woman)
Описание:
Романтический уик-энд на уединенной роскошной вилле в итальянской Тоскане - вот, что должно помочь вернуть отношениям Брайана и Кэсси искру страсти. Но, едва начав наслаждаться жизнью и друг другом, молодая пара сталкивается со странным незнакомцем, который втягивает их в опасную игру, в которой нельзя доверять никому.
Рейтинг:

MPAA: R - Лицам до 17 лет обязательно присутствие взрослого
Качество: BDRip 1080p
Формат: MKV
Видео: AVC | 1920 x 800 | 59.940 fps | 12.0 Мбит/сек
Аудио #1: AC-3 | 5.1 | 48 kHz | 384 Кбит/сек | 16 bit | Дубляж (iTunes) | RUS |
Аудио #2: DTS| 5.1 | 48 kHz | 1509 Кбит/сек | 24 bit | Оригинал | ENG |
Навигация по главам: есть

General
Unique ID : 43647211394184028128128184970226611944 (0x20D625AB0D78A22A687B5196B366B6E8)
Complete name : D:\2018 Идеальная западня BDRip 1080p 60 fps.mkv
Format : Matroska
Format version : Version 4 / Version 2
File size : 9.49 GiB
Duration : 1h 37mn
Overall bit rate : 13.9 Mbps
Movie name : Идеальная западня / Welcome Home (2018)
Encoded date : UTC 2019-01-25 22:51:31
Writing application : mkvmerge v22.0.0 ('At The End Of The World') 64-bit
Writing library : libebml v1.3.5 + libmatroska v1.4.8
DURATION : 01:35:16.657000000
NUMBER_OF_FRAMES : 1124
NUMBER_OF_BYTES : 29498
_STATISTICS_WRITING_APP : mkvmerge v22.0.0 ('At The End Of The World') 64-bit
_STATISTICS_WRITING_DATE_UTC : 2019-01-25 22:51:31
_STATISTICS_TAGS : BPS DURATION NUMBER_OF_FRAMES NUMBER_OF_BYTES
Video #1
ID : 1
Format : AVC
Format/Info : Advanced Video Codec
Format profile : High@L4.1
Format settings, CABAC : Yes
Format settings, ReFrames : 5 frames
Codec ID : V_MPEG4/ISO/AVC
Duration : 1h 37mn
Bit rate : 12.0 Mbps
Width : 1 920 pixels
Height : 800 pixels
Display aspect ratio : 2.40:1
Frame rate : 59.940 fps
Color space : YUV
Chroma subsampling : 4:2:0
Bit depth : 8 bits
Scan type : Progressive
Bits/(Pixel*Frame) : 0.130
Stream size : 8.01 GiB (84%)
Writing library : x264 core 146 r2538 121396c
Encoding settings : cabac=1 / ref=5 / deblock=1:-3:-3 / analyse=0x3:0x113 / me=umh / subme=9 / psy=1 / psy_rd=1.00:0.25 / mixed_ref=1 / me_range=32 / chroma_me=1 / trellis=2 / 8x8dct=1 / cqm=0 / deadzone=6,6 / fast_pskip=1 / chroma_qp_offset=-4 / threads=12 / lookahead_threads=2 / sliced_threads=0 / nr=0 / decimate=0 / interlaced=0 / bluray_compat=0 / constrained_intra=0 / bframes=3 / b_pyramid=2 / b_adapt=2 / b_bias=0 / direct=3 / weightb=1 / open_gop=0 / weightp=2 / keyint=600 / keyint_min=60 / scenecut=40 / intra_refresh=0 / rc_lookahead=60 / rc=2pass / mbtree=1 / bitrate=12000 / ratetol=1.0 / qcomp=0.80 / qpmin=0 / qpmax=69 / qpstep=4 / cplxblur=20.0 / qblur=0.5 / vbv_maxrate=50000 / vbv_bufsize=50000 / nal_hrd=none / filler=0 / ip_ratio=1.10 / aq=1:0.50
Language : English
Default : Yes
Forced : No
DURATION : 01:37:50.749000000
NUMBER_OF_FRAMES : 351893
NUMBER_OF_BYTES : 8802814498
_STATISTICS_WRITING_APP : mkvmerge v22.0.0 ('At The End Of The World') 64-bit
_STATISTICS_WRITING_DATE_UTC : 2019-01-25 22:51:31
_STATISTICS_TAGS : BPS DURATION NUMBER_OF_FRAMES NUMBER_OF_BYTES
Audio #2
ID : 2
Format : AC-3
Format/Info : Audio Coding 3
Mode extension : CM (complete main)
Format settings, Endianness : Big
Codec ID : A_AC3
Duration : 1h 37mn
Bit rate mode : Constant
Bit rate : 384 Kbps
Channel(s) : 6 channels
Channel positions : Front: L C R, Side: L R, LFE
Sampling rate : 48.0 KHz
Bit depth : 16 bits
Compression mode : Lossy
Stream size : 269 MiB (3%)
Title : Дубляж [iTunes]
Language : Russian
Default : Yes
Forced : No
Audio #3
ID : 3
Format : DTS
Format/Info : Digital Theater Systems
Codec ID : A_DTS
Duration : 1h 37mn
Bit rate mode : Constant
Bit rate : 1 510 Kbps
Channel(s) : 6 channels
Channel positions : Front: L C R, Side: L R, LFE
Sampling rate : 48.0 KHz
Bit depth : 24 bits
Compression mode : Lossy
Stream size : 1.03 GiB (11%)
Title : [Original]
Language : English
Default : No
Forced : No
DURATION : 01:37:50.817000000
NUMBER_OF_FRAMES : 550389
NUMBER_OF_BYTES : 1107382668
_STATISTICS_WRITING_APP : mkvmerge v22.0.0 ('At The End Of The World') 64-bit
_STATISTICS_WRITING_DATE_UTC : 2019-01-25 22:51:31
_STATISTICS_TAGS : BPS DURATION NUMBER_OF_FRAMES NUMBER_OF_BYTES
Text #4
ID : 4
Format : UTF-8
Codec ID : S_TEXT/UTF8
Codec ID/Info : UTF-8 Plain Text
Title : Full
Language : English
Default : No
Forced : No
Text #5
ID : 5
Format : UTF-8
Codec ID : S_TEXT/UTF8
Codec ID/Info : UTF-8 Plain Text
Title : SDH
Language : English
Default : No
Forced : No
Menu
00:00:00.000 : :Chapter 01
00:06:42.068 : :Chapter 02
00:12:26.996 : :Chapter 03
00:18:53.006 : :Chapter 04
00:25:27.943 : :Chapter 05
00:32:08.051 : :Chapter 06
00:37:09.393 : :Chapter 07
00:42:48.941 : :Chapter 08
00:48:54.389 : :Chapter 09
00:53:10.687 : :Chapter 10
00:59:34.779 : :Chapter 11
01:05:20.791 : :Chapter 12
01:10:48.744 : :Chapter 13
01:16:07.145 : :Chapter 14
01:22:30.236 : :Chapter 15
01:28:50.366 : :Chapter 16
01:34:49.433 : :Chapter 17
01:37:50.823 : :Chapter 18
piratbit.org



Скачать Идеальная западня через торрент https://d.radikal.ru/d12/1904/37/5ddd02e858a3.png Скачать фильм Идеальная западня через торрент бесплантно в хорошем качестве Описание: Романтический уик-энд на уединенной роскошной вилле в итальянской Тоскане - вот, что должно помочь вернуть отношениям Брайана и ... 9.5 10 4
Info! Золотая раздача, скачанное не засчитывается.
Торрент: Зарегистрирован [2019-04-17 14:37] · скачан: 51 раз
Статус: √ проверено
Размер: 9.49 GB
Как cкачать? Как скачать Идеальная западня через торрент | qTorrent

% Раздел Тема Автор DL S | L
Фильмы [HD 720p, 1080p] (Хороший звук DUB, MVO) [ 9.49 GB ] Идеальная западня / Welcome Home [2018 BDRip-HEVC 1080p ] bober100 Скачать
4 | 0
Фильмы 2018 [DVDrip, WEB-DLRip, HDrip] (DUB, MVO) [ 1.42 GB ] Идеальная западня / Welcome Home [2018 BDRip] - Twi7ter Скачать
70 | 3
Фильмы 2018 [DVDrip, WEB-DLRip, HDrip] (DUB, MVO) [ 1.93 GB ] Идеальная западня / Welcome Home [2018 BDRip-AVC] + MVO [HDRezka Studio] sheker187 Скачать
7 | 0
Фильмы [HD 720p, 1080p] (Хороший звук DUB, MVO) [ 9.62 GB ] Идеальная западня / Welcome Home [2018 BDRip 1080p] + MVO [HDRezka Studio] sheker187 Скачать
7 | 0
Фильмы [HD 720p, 1080p] (Хороший звук DUB, MVO) [ 22.2 GB ] Идеальная западня / Welcome Home [2018 Blu-Ray Remux 1080p] DUB () MVO ЛеонидИльич Скачать
6 | 0
Фильмы 2018 [DVDrip, WEB-DLRip, HDrip] (DUB, MVO) [ 1.42 GB ] Идеальная западня / Welcome Home [2018 BDRip] killermax2013 Скачать
3 | 0


>> Регистрируемся здесь <<






Отзывы и комментарии о схеме читаем и пишем здесь: ---> Отзывы и комментарии о схеме

Новые благодарочки в телеграм довольных пользователей:
скриншот   скриншот   скриншот   скриншот   скриншот
    Дорогой пользователь! Огромная просьба, поблагодарите релизера, оцените раздачу и оставьте свои комментарий, если Вы скачали Идеальная западня через торрент бесплатно! Внесите свою лепту в развитие PiratBit!
    Комментировать посты могут только пользователи прошедшие не сложную регистрацию
    Показать сообщения:    

    Идеальная западня через торрент
    Скачать бесплатно Идеальная западня
    Идеальная западня скачать торрент
    Идеальная западня смотреть онлайн
    Cкачать фильм Идеальная западня бесплатно
    Идеальная западня скачать торрент в хорошем качестве
    Идеальная западня смотреть онлайн бесплатно в хорошем качестве


    Вы не можете начинать темы
    Вы не можете отвечать на сообщения
    Вы не можете редактировать свои сообщения
    Вы не можете удалять свои сообщения
    Вы не можете голосовать в опросах
    Вы не можете прикреплять файлы к сообщениям
    Вы можете скачивать файлы