MEGA SALE -50% FORZA HORIZON 4 ULTIMATE+ВСЕ DLC+ОНЛАЙН всего за 599р. 299 руб. (супер цена). Внимание количество ограничено!!!

iTunes

1+1

iTunes

мы

iTunes

1

iTunes

Чернобыль

iTunes

Ральф против интернета

Лицензия

ПШазам

Лицензия

Игра престолов

Лицензия

30
pack

ВАЖНО

!!Акция!!

Alien_RageХит недели

RePack

Resident Evil 21

ИГРА 18+

pack

RePack

Metro:Exodus

!!Акция!!

Alien_Rage

RePack

fifa19

RePack

Assassins Creed: Odyssey

RePack

NEED FOR SPEED™ PAYBACK

3 сезон

9 сезон

Бесстыжие 9 сезон

Все сериалы

все сериалы на PB.wtf

RePack

FAR CRY 5
Ребята, катастрофически не хватает 7730р. для оплаты серверов за АВГУСТ (всвязи с блокировками трафик упал в 3 раза), 1-2р., выручайте.
  

Стекло / Glass (М. Найт Шьямалан) [2019, фантастика, триллер, драма, UHD BDRip 2160p] [SDR] Дубляж [iTunes] piratbit.org

Стекло через торрент piratbit.org

Размер: 24.78 GB | Добавлен: 5 мес. назад | Торрент скачан:18 раз
Скачать  

17-04-2019 14:47 Стекло Скачать торрент  

Стекло / Glass«Дай волю своим демонам»

Год выпуска: 2019
Страна: США
Жанр: фантастика, триллер, драма
Продолжительность: 02:09:01
Перевод: Дублированный | iTunes
Субтитры: Русские (Forced), английские
Режиссер: М. Найт Шьямалан
В ролях:

Джеймс МакЭвой (Patricia / Dennis / Hedwig / The Beast / Barry / Heinrich / Jade / Ian / Mary Reynolds / Norma / Jalin / Kat / B.T. / Kevin Wendell Crumb / Mr. Pritchard / Felida / Luke / Goddard / Samuel / Polly), Брюс Уиллис (David Dunn), Сэмюэл Л. Джексон (Elijah Price), Аня Тейлор-Джой (Casey Cooke), Сара Полсон (Dr. Ellie Staple), Спенсер Трит Кларк (Joseph Dunn), Чарлэйн Вудард (Mrs. Price), Люк Кирби (Pierce), Адам Дэвид Томпсон (Daryl), М. Найт Шьямалан (Jai, Security Guard), Шеннон Дестини Райан (Cheerleading Girl), Диана Сильверс (Cheerleading Girl)
Описание:
В поисках встречи с обладающим фантастическими способностями и снова убивающем девушек Зверем Дэвид Данн выходит на след Кевина Крамба. Но решающая схватка не успевает состояться, наших героев ловят и отправляют в психиатрическую больницу. Там уже содержится хрупкий человек Элайджа Прайс, несколько лет назад устроивший крушение поезда, единственным выжившим в котором оказался Дэвид. Психиатр Элли Стэйпл пытается убедить этих трёх пациентов, что они не обладают сверхспособностями, и всему можно найти рациональное объяснение.
Рейтинг:

MPAA: PG-13 - Детям до 13 лет просмотр не желателен
Качество: UHD BDRip 2160p | SDR
Формат: MKV
Видео: HEVC, 22.5 Mбит/с, 3840x1606, 23.976 кадр/с, 10 бит
Аудио: 48 kHz, AC3, 5.1, 384 Kbps | Дублированный | RUS |
Аудио: 48 kHz, TrueHD, 7.1, 4109 Kbps | Оригинал | ENG |
Аудио: 48 kHz, AC3, 5.1, 448 Kbps | Оригинал | ENG |
Навигация по главам: есть

Общее
Уникальный идентификатор : 208780090140468398780449878472941209102 (0x9D11952E67C4FBDF8A3A26A44131860E)
Полное имя : D:\Мои раздачи\Передел\Glass.2019.2160p.UHD.BDRip.x265.10bit.SDR.Master5.mkv
Формат : Matroska
Версия формата : Version 4 / Version 2
Размер файла : 24,8 Гбайт
Продолжительность : 2 ч. 9 м.
Режим общего битрейта : Переменный
Общий поток : 27,5 Мбит/сек
Название фильма : Glass.2019.2160p.UHD.BDRip.x265.10bit.SDR.Master5
Дата кодирования : UTC 2019-04-17 08:57:21
Программа кодирования : mkvmerge v7.9.0 ('Birds') 64bit
Библиотека кодирования : libebml v1.3.1 + libmatroska v1.4.2
Обложка : Yes
Attachments : small_cover.jpg / small_cover_land.jpg / cover.jpg / cover_land.jpg

Видео
Идентификатор : 1
Формат : HEVC
Формат/Информация : High Efficiency Video Coding
Профиль формата : Main 10@L5.1@High
Идентификатор кодека : V_MPEGH/ISO/HEVC
Продолжительность : 2 ч. 9 м.
Битрейт : 22,5 Мбит/сек
Ширина : 3840 пикселей
Высота : 1606 пикселей
Соотношение сторон : 2,40:1
Режим частоты кадров : Постоянный
Частота кадров : 23,976 (24000/1001) кадра/сек
Цветовое пространство : YUV
Субдискретизация насыщенности : 4:2:0
Битовая глубина : 10 бит
Бит/(Пиксели*Кадры) : 0.152
Размер потока : 20,3 Гбайт (82%)
Заголовок : Glass.2019.2160p.UHD.BDRip.x265.10bit.SDR.Master5
Библиотека кодирования : x265 3.0+1-ed72af837053:[Windows][GCC 8.2.0][64 bit] 10bit
Настройки программы : cpuid=1111039 / frame-threads=16 / numa-pools=24,24,24,24 / wpp / no-pmode / no-pme / no-psnr / no-ssim / log-level=2 / input-csp=1 / input-res=3840x1606 / interlace=0 / total-frames=185612 / level-idc=51 / high-tier=1 / uhd-bd=0 / ref=3 / no-allow-non-conformance / repeat-headers / annexb / aud / hrd / info / hash=0 / no-temporal-layers / no-open-gop / min-keyint=1 / keyint=24 / gop-lookahead=0 / bframes=4 / b-adapt=2 / b-pyramid / bframe-bias=0 / rc-lookahead=25 / lookahead-slices=4 / scenecut=40 / radl=0 / no-splice / no-intra-refresh / ctu=64 / min-cu-size=8 / no-rect / no-amp / max-tu-size=32 / tu-inter-depth=1 / tu-intra-depth=1 / limit-tu=0 / rdoq-level=0 / dynamic-rd=0.00 / no-ssim-rd / signhide / no-tskip / nr-intra=0 / nr-inter=0 / no-constrained-intra / strong-intra-smoothing / max-merge=2 / limit-refs=3 / no-limit-modes / me=1 / subme=2 / merange=57 / temporal-mvp / weightp / no-weightb / no-analyze-src-pics / deblock=0:0 / no-sao / no-sao-non-deblock / rd=3 / no-early-skip / rskip / no-fast-intra / no-tskip-fast / no-cu-lossless / no-b-intra / no-splitrd-skip / rdpenalty=0 / psy-rd=2.00 / psy-rdoq=0.00 / no-rd-refine / no-lossless / cbqpoffs=0 / crqpoffs=0 / rc=crf / crf=16.0 / qcomp=0.60 / qpstep=4 / stats-write=0 / stats-read=0 / vbv-maxrate=160000 / vbv-bufsize=160000 / vbv-init=0.9 / crf-max=0.0 / crf-min=0.0 / ipratio=1.40 / pbratio=1.30 / aq-mode=1 / aq-strength=1.00 / cutree / zone-count=0 / no-strict-cbr / qg-size=32 / no-rc-grain / qpmax=69 / qpmin=0 / no-const-vbv / sar=1 / overscan=0 / videoformat=5 / range=0 / colorprim=2 / transfer=2 / colormatrix=2 / chromaloc=0 / display-window=0 / max-cll=0,0 / min-luma=0 / max-luma=1023 / log2-max-poc-lsb=8 / vui-timing-info / vui-hrd-info / slices=1 / opt-qp-pps / opt-ref-list-length-pps / no-multi-pass-opt-rps / scenecut-bias=0.05 / no-opt-cu-delta-qp / no-aq-motion / no-hdr / no-hdr-opt / no-dhdr10-opt / no-idr-recovery-sei / analysis-reuse-level=5 / scale-factor=0 / refine-intra=0 / refine-inter=0 / refine-mv=0 / refine-ctu-distortion=0 / no-limit-sao / ctu-info=0 / no-lowpass-dct / refine-analysis-type=0 / copy-pic=1 / max-ausize-factor=1.0 / no-dynamic-refine / no-single-sei / no-hevc-aq / qp-adaptation-range=1.00
Default : Да
Forced : Нет

Аудио #1
Идентификатор : 2
Формат : AC-3
Формат/Информация : Audio Coding 3
Идентификатор кодека : A_AC3
Продолжительность : 2 ч. 9 м.
Вид битрейта : Постоянный
Битрейт : 384 Кбит/сек
Каналы : 6 каналов
Расположение каналов : Front: L C R, Side: L R, LFE
Частота : 48,0 КГц
Частота кадров : 31,250 кадров/сек (1536 SPF)
Битовая глубина : 16 бит
Метод сжатия : С потерями
Размер потока : 355 Мбайт (1%)
Заголовок : iTunes
Язык : Russian
ServiceKind/String : Complete Main
Default : Да
Forced : Да

Аудио #2
Идентификатор : 3
Формат : TrueHD
Профиль формата : TrueHD+Atmos / TrueHD
Идентификатор кодека : A_TRUEHD
Продолжительность : 2 ч. 9 м.
Вид битрейта : Переменный
Битрейт : 4109 Кбит/сек
Максимальный битрейт : 7326 Кбит/сек
Каналы : Object Based / 8 каналов
Расположение каналов : Object Based / Front: L C R, Side: L R, Back: L R, LFE
Частота : / 48,0 КГц
Частота кадров : 1200,000 кадров/сек (40 SPF)
Метод сжатия : Без потерь
Размер потока : 3,70 Гбайт (15%)
Заголовок : Original
Язык : English
Default : Нет
Forced : Нет

Аудио #3
Идентификатор : 4
Формат : AC-3
Формат/Информация : Audio Coding 3
Идентификатор кодека : A_AC3
Продолжительность : 2 ч. 9 м.
Вид битрейта : Постоянный
Битрейт : 448 Кбит/сек
Каналы : 6 каналов
Расположение каналов : Front: L C R, Side: L R, LFE
Частота : 48,0 КГц
Частота кадров : 31,250 кадров/сек (1536 SPF)
Битовая глубина : 16 бит
Метод сжатия : С потерями
Размер потока : 413 Мбайт (2%)
Язык : English
ServiceKind/String : Complete Main
Default : Нет
Forced : Нет

Текст #1
Идентификатор : 5
Формат : UTF-8
Идентификатор кодека : S_TEXT/UTF8
Идентификатор кодека/Информация : UTF-8 Plain Text
Продолжительность : 1 ч. 49 м.
Битрейт : 1 бит/сек
ElementCount : 28
Размер потока : 1,60 Кбайт (0%)
Заголовок : Forced
Язык : Russian
Default : Да
Forced : Да

Текст #2
Идентификатор : 6
Формат : UTF-8
Идентификатор кодека : S_TEXT/UTF8
Идентификатор кодека/Информация : UTF-8 Plain Text
Продолжительность : 2 ч. 1 м.
Битрейт : 43 бит/сек
ElementCount : 1201
Размер потока : 38,8 Кбайт (0%)
Заголовок : Full
Язык : English
Default : Нет
Forced : Нет

Текст #3
Идентификатор : 7
Формат : UTF-8
Идентификатор кодека : S_TEXT/UTF8
Идентификатор кодека/Информация : UTF-8 Plain Text
Продолжительность : 2 ч. 2 м.
Битрейт : 52 бит/сек
ElementCount : 1565
Размер потока : 46,8 Кбайт (0%)
Заголовок : SDH
Язык : English
Default : Нет
Forced : Нет

Меню
00:00:00.000 : :Chapter 01
00:08:20.000 : :Chapter 02
00:16:40.000 : :Chapter 03
00:25:00.000 : :Chapter 04
00:33:20.000 : :Chapter 05
00:41:40.000 : :Chapter 06
00:50:00.000 : :Chapter 07
00:58:20.000 : :Chapter 08
01:06:40.000 : :Chapter 09
01:15:00.000 : :Chapter 10
01:23:20.000 : :Chapter 11
01:31:40.000 : :Chapter 12
01:40:00.000 : :Chapter 13
01:48:20.000 : :Chapter 14
01:56:40.000 : :Chapter 15
02:05:00.000 : :Chapter 16
piratbit.org



Скачать Стекло через торрент https://c.radikal.ru/c39/1904/fa/90ba1b29a98e.png Скачать фильм Стекло через торрент бесплантно в хорошем качестве Описание: В поисках встречи с обладающим фантастическими способностями и снова убивающем девушек Зверем Дэвид Данн выходит на след Кевина ... 10 10 1
Торрент: Зарегистрирован [2019-04-17 14:47] · скачан: 18 раз
Статус: ∑ поглощено
Размер: 24.78 GB
Как cкачать? Как скачать Стекло через торрент | qTorrent

% Раздел Тема Автор DL S | L
Фильмы 2019 [DVDrip, WEB-DLRip, HDrip] (DUB, MVO) [ 2.98 GB ] Стекло / Glass [2019 BDRip-AVC] MVO [HDRezka Studio] + AVO [Чадов Есарев] - ExKinoRay Enigma2010 Скачать
41 | 2
Фильмы (HD 720p, 1080p) (48-60 fps) [ 3.91 GB ] Стекло / Glass [2019 BDRip - HEVC 1080p 12 bit 60 FPS] dd2d3 Скачать
4 | 0
Фильмы 2019 [DVDrip, WEB-DLRip, HDrip] (DUB, MVO) [ 2.13 GB ] Стекло / Glass [2019 BDRip] - Twi7ter Скачать
35 | 0
Фильмы (HD 720p, 1080p) (48-60 fps) [ 26.55 GB ] Стекло / Glass [2019 BDRip 1080p 60 fps] sheker187 Скачать
2 | 0
Ultra HD (UHD: 2K, 4K, 8K) — видео сверхвысокой чёткости [ 86.39 GB ] Стекло / Glass [2019 UHD Blu-ray 2160p] sheker187 Скачать
5 | 0
Ultra HD (UHD: 2K, 4K, 8K) — видео сверхвысокой чёткости [ 29.48 GB ] Стекло / Glass [2019 UHD BDRip 2160p] [SDR] DUB + MVO [HDRezka Studio] sheker187 Скачать
2 | 0
Ultra HD (UHD: 2K, 4K, 8K) — видео сверхвысокой чёткости [ 17.29 GB ] Стекло / Glass [2019 UHD BDRip 2160p] DUB + MVO [HDRezka Studio] sheker187 Скачать
3 | 0


>> Регистрируемся здесь <<






Отзывы и комментарии о схеме читаем и пишем здесь: ---> Отзывы и комментарии о схеме

Новые благодарочки в телеграм довольных пользователей:
скриншот   скриншот   скриншот   скриншот   скриншот

17-04-2019 19:37 Стекло Скачать торрент  

Топик был перенесен из форума Ultra HD (UHD: 2K, 4K, 8K) — видео сверхвысокой чёткости в форум Для поглощённых раздач

Причина переноса: Стекло / Glass
bober100piratbit.org



    Дорогой пользователь! Огромная просьба, поблагодарите релизера, оцените раздачу и оставьте свои комментарий, если Вы скачали Стекло через торрент бесплатно! Внесите свою лепту в развитие PiratBit!
    Комментировать посты могут только пользователи прошедшие не сложную регистрацию
    Показать сообщения:    

    Стекло через торрент
    Скачать бесплатно Стекло
    Стекло скачать торрент
    Стекло смотреть онлайн
    Cкачать фильм Стекло бесплатно
    Стекло скачать торрент в хорошем качестве
    Стекло смотреть онлайн бесплатно в хорошем качестве


    Вы не можете начинать темы
    Вы не можете отвечать на сообщения
    Вы не можете редактировать свои сообщения
    Вы не можете удалять свои сообщения
    Вы не можете голосовать в опросах
    Вы не можете прикреплять файлы к сообщениям
    Вы можете скачивать файлы