1 сезон

3 сезон

iTunes

1

iTunes

DUB Netflix

iTunes

13

1 сезон

RePack

30

Deluxe

pack

Легкие деньги

ВАЖНО

ИГРА 18+

pack

RePack

MK11

RePack

jed

RePack

fifa19

RePack

RDR2

RePack

NEED FOR SPEED™ PAYBACK

4 сезон

9 сезон

Бесстыжие 9 сезон

Все сериалы

все сериалы на PB.wtf

RePack

FAR CRY 5

Anonymous, добрый вечер, мы не успеваем до 1 числа собрать деньги на оплату серверов, помогите нам пожалуйста в это трудное время. В качестве благодарности мы отключим Вам всю рекламу на сайте (укажите свой ник в строку Ваше имя)!

×
  
Magnet ссылка

Озабоченные, или Любовь зла / Сезон: 1 / Серии: 1-21 из 21 (Борис Хлебников) [2015, комедия, WEB-DLRip-AVC] piratbit.org

Озабоченные, или Любовь зла через торрент piratbit.org

Раздают: 2 [ 0 KB/s ]
Размер: 6.53 GB | Добавлен: 2 года 2 мес. назад | Торрент скачан:107 раз
Скачать  

18-04-2019 10:07 Озабоченные, или Любовь зла Скачать торрент  

Озабоченные, или Любовь зла Год выпуска: 2015
Страна: Россия
Жанр: комедия
Продолжительность: 21 х ~ 00:26:00
Субтитры: отсутствуют

Режиссер: Борис Хлебников

rating

В ролях:

Мария Шалаева, Евгения Калинец, Ольга Дибцева, Юрий Колокольников, Николай Шрайбер, Иван Шмаков, Сергей Бурунов, Константин Желдин, Евгений Цыганов, Борис Каморзин, Роман Волобуев, Евгений Сытый, Елена Валюшкина, Евгений Муравич, Альбина Тиханова, Донатас Грудович, Сергей Астахов, Бесо Гатаев, Александр Никольский (II), Анна Очкова, Илья Маланин, Михаил Куряев, Руслан Ягудин, Александр Хованский (II), Анна Легчилова, Мария Малиновская, Геннадий Матвеев, Елена Альмяшева, Анна Котова, Екатерина Берлинская, Сергей Ланбамин, Алексей Маслодудов, Максим Костромыкин, Наталья Рыжих

Описание:

История простой девушки из Екатеринбурга Саши Гвоздиковой. Осознав, что в жизни нужно что-то менять, Саша уезжает в Москву, бросив скучную работу и женатого любовника. Саша пишет рассказы и мечтает, чтобы их опубликовали, но переоценивает свой писательский талант. Вместе с Сашей в Москве живут две ее лучшие подруги из Екатеринбурга, Катя и Алена. Сюжет истории, снятой одновременно и смешно, и лирично, вертится вокруг трех героинь, которые пытаются найти себя в столичной жизни и в отношениях.

Качество: WEB-DLRip-AVC
Формат: MKV

Видео: MPEG-4 AVC, ~ 1600 Кбит/с, 1024x576, 25 кадр/с
Аудио: AC3, 2 ch, 192 Кбит/с
скриншот  скриншот  скриншот  скриншот  

Общее
Уникальный идентификатор : 190187635036088740752987764856545613389 (0x8F14CE5EFB8B8D60A0986B154844164D)
Полное имя : D:\Ozab0chenye.2015.WEB-DLRip.(AVC).Files-x\Ozab0chenye.(01.seriya.iz.24).2015.WEB-DLRip.AVC.by.Серый1779.Files-x.mkv
Формат : Matroska
Версия формата : Version 2
Размер файла : 342 Мбайт
Продолжительность : 26 м. 40 с.
Общий поток : 1791 Кбит/сек
Дата кодирования : UTC 2015-11-06 01:48:34
Программа кодирования : mkvmerge v6.1.0 ('Old Devil') built on Mar 4 2013 09:10:42
Библиотека кодирования : libebml v1.3.0 + libmatroska v1.4.0

Видео
Идентификатор : 1
Формат : AVC
Формат/Информация : Advanced Video Codec
Профиль формата : High@L4.1
Параметр CABAC формата : Да
Параметр RefFrames формата : 9 кадров
Идентификатор кодека : V_MPEG4/ISO/AVC
Продолжительность : 26 м. 40 с.
Битрейт : 1600 Кбит/сек
Ширина : 1024 пикселя
Высота : 576 пикселей
Соотношение сторон : 16:9
Режим частоты кадров : Постоянный
Частота кадров : 25,000 кадров/сек
Цветовое пространство : YUV
Субдискретизация насыщенности : 4:2:0
Битовая глубина : 8 бит
Тип развёртки : Прогрессивная
Бит/(Пиксели*Кадры) : 0.109
Размер потока : 298 Мбайт (87%)
Библиотека кодирования : x264 core 130 r2273 b3065e6
Настройки программы : cabac=1 / ref=9 / deblock=1:-2:-1 / analyse=0x3:0x133 / me=umh / subme=9 / psy=1 / psy_rd=1.00:0.15 / mixed_ref=1 / me_range=32 / chroma_me=1 / trellis=2 / 8x8dct=1 / cqm=0 / deadzone=21,11 / fast_pskip=0 / chroma_qp_offset=-3 / threads=6 / lookahead_threads=1 / sliced_threads=0 / nr=0 / decimate=1 / interlaced=0 / bluray_compat=0 / constrained_intra=0 / bframes=9 / b_pyramid=2 / b_adapt=2 / b_bias=0 / direct=1 / weightb=1 / open_gop=0 / weightp=2 / keyint=250 / keyint_min=25 / scenecut=40 / intra_refresh=0 / rc=2pass / mbtree=0 / bitrate=1600 / ratetol=1.0 / qcomp=0.60 / qpmin=0 / qpmax=69 / qpstep=4 / cplxblur=20.0 / qblur=0.5 / ip_ratio=1.40 / pb_ratio=1.30 / aq=2:1.00
Default : Да
Forced : Нет
Цветовой диапазон : Limited
Основные цвета : BT.709
Характеристики трансфера : BT.709
Коэффициенты матрицы : BT.709

Аудио
Идентификатор : 2
Формат : AC-3
Формат/Информация : Audio Coding 3
Расширение режима : CM (complete main)
Параметр Endianness формата : Big
Идентификатор кодека : A_AC3
Продолжительность : 26 м. 40 с.
Вид битрейта : Постоянный
Битрейт : 192 Кбит/сек
Каналы : 2 канала
Расположение каналов : Front: L R
Частота : 44,1 КГц
Частота кадров : 28,711 кадров/сек (1536 spf)
Метод сжатия : С потерями
Размер потока : 36,6 Мбайт (11%)
Default : Да
Forced : Нет

piratbit.org



Скачать Озабоченные, или Любовь зла через торрент https://d.radikal.ru/d16/1903/c9/f20b2a9d67b1.jpg Скачать фильм Озабоченные, или Любовь зла через торрент бесплантно в хорошем качестве Описание: История простой девушки из Екатеринбурга Саши Гвоздиковой. Осознав, что в жизни нужно что-то менять, Саша уезжает в Москву, ... 10 10 6
Торрент: Зарегистрирован [2019-04-18 10:07] · скачан: 107 раз
Статус: √ проверено
Размер: 6.53 GB
Как cкачать? Как скачать Озабоченные, или Любовь зла через торрент | UTorrent

% Раздел Тема Автор DL S | L
TNT serials [ 6.75 GB ] Озабоченные или Любовь зла / Сезон: 1 / Серии: 1-21 из 21 [2015 WEB-DLRip] bober100 Скачать
1 | 0
TNT serials [ 11.79 GB ] Озабоченные или Любовь зла / Сезон 1 / Серии 1-21 из 21 [2015 WEB-DL 720p] bober100 Скачать
1 | 0
TNT serials [ 6.74 GB ] Озабоченные или Любовь зла / Сезон: 1 / Серии: 1-21 из 21 [2015 SATRip] diletant Скачать
1 | 0

28-11-2019 20:33  

Отключить всю рекламу на сайте

    Дорогой пользователь! Огромная просьба, поблагодарите релизера, оцените раздачу и оставьте свои комментарий, если Вы скачали Озабоченные, или Любовь зла через торрент бесплатно! Внесите свою лепту в развитие PiratBit!
    Комментировать посты могут только пользователи прошедшие не сложную регистрацию
    Показать сообщения:    

    Озабоченные, или Любовь зла через торрент
    Скачать бесплатно Озабоченные, или Любовь зла
    Озабоченные, или Любовь зла скачать торрент
    Озабоченные, или Любовь зла смотреть онлайн
    Cкачать фильм Озабоченные, или Любовь зла бесплатно
    Озабоченные, или Любовь зла скачать торрент в хорошем качестве
    Озабоченные, или Любовь зла смотреть онлайн бесплатно в хорошем качестве


    Вы не можете начинать темы
    Вы не можете отвечать на сообщения
    Вы не можете редактировать свои сообщения
    Вы не можете удалять свои сообщения
    Вы не можете голосовать в опросах
    Вы не можете прикреплять файлы к сообщениям
    Вы можете скачивать файлы