Доктор Стрэндж

Лицензия

Добыча

Дубляж

Уэнсдэй

1 сезон

Тор

Дубляж

В эфире

Дубляж

Там, где раки поют

MVO

Властелин колец

1 сезон

Deluxe

pack

Рекомендуем

30

Пиратка

ВАЖНО

ВАЖНО

Ghostwire

Пиратка

jed

RePack

nioh2

RePack

RDR2

RePack

NEED FOR SPEED™ PAYBACK

RePack

скачать торрент

Кинопоиск HD

Острые козырьки 6 сезон

6 сезон

FAR CRY 6

RePack

скачать торрент

Лицензия

скачать торрент

MVO

1

1 сезон

скачать торрент

1 сезон

скачать торрент

Лицензия

  

Путешествие в Ад / Tourist Trap (Дэвид Шмёллер) [1979, ужасы, BDRip 1080p ] DVO

Путешествие в Ад через торрент piratbit.org

Размер: 10.77 GB | Добавлен: 3 года 7 мес. назад | Торрент скачан:5 раз
Смотреть онлайн | Скачать   

21-04-2019 07:04 Путешествие в Ад Скачать торрент  

Название: Путешествие в Ад
Оригинальное название: Tourist Trap
Год выпуска: 1979
Страна: США
Жанр: ужасы
Продолжительность: 01:25:02
Перевод: закадровый двухголосый

Режиссер: Дэвид Шмёллер
В ролях: Чак Коннорс, Жослин Джонс, Джон Ван Несс, Робин Шервуд, Таня Робертс, Доун Джеффори, Кит МакДермотт, Шайлар Коби, Арлеккино, Виктория Ришар

Описание: Не все «ловушки для туристов», приманки из путеводителей, похожи друг на друга, как думали весёлые путешественники, исколесившие юг Америки. Они не знали, что «музей Слосена» станет для них настоящей ловушкой. Здесь, в живописном местечке в стороне от проезжей дороги, выходят из повиновения вещи, начиная жить своей, враждебной человеку, жизнью. Предметы оживают, а люди превращаются в манекены, послушные злой воле хозяина...



Качество: BDRip 1080p
Формат: MKV
Видео: MPEG-4 AVC, 16.2 Mбит/с, 1920x1080, 23.976 кадр/с
Аудио 1: русский, AC3, 448 kbps, 4 ch, 48 kHz [закадровый двухголосый, СТС]
Аудио 2: английский, DTS, 1509 kbps, 6 ch, 48 kHz [оригинал]
Главы/чаптеры
Общее
Уникальный идентификатор : 202868539643758885510161267150577274782 (0x989F0F3D3016A7579A98A3E2BE710F9E)
Полное имя : D:\Video\Путешествие в Ад.1979.BDRip 1080p by msltel.mkv
Формат : Matroska
Версия формата : Version 4
Размер файла : 10,8 Гбайт
Продолжительность : 1 ч. 25 м.
Общий поток : 18,1 Мбит/сек
Название фильма : Rip by msltel
Дата кодирования : UTC 2019-04-21 02:31:07
Программа кодирования : mkvmerge v8.2.0 ('World of Adventure') 64bit
Библиотека кодирования : libebml v1.3.1 + libmatroska v1.4.2

Видео
Идентификатор : 1
Формат : AVC
Формат/Информация : Advanced Video Codec
Профиль формата : High@L4.1
Настройки формата : CABAC / 4 Ref Frames
Параметр CABAC формата : Да
Параметр RefFrames формата : 4 кадра
Идентификатор кодека : V_MPEG4/ISO/AVC
Продолжительность : 1 ч. 25 м.
Битрейт : 16,2 Мбит/сек
Ширина : 1920 пикселей
Высота : 1080 пикселей
Соотношение сторон : 16:9
Режим частоты кадров : Постоянный
Частота кадров : 23,976 (24000/1001) кадра/сек
Цветовое пространство : YUV
Субдискретизация насыщенности : 4:2:0
Битовая глубина : 8 бит
Тип развёртки : Прогрессивная
Бит/(Пиксели*Кадры) : 0.325
Размер потока : 9,60 Гбайт (89%)
Библиотека кодирования : x264 core 157 r2935 545de2f
Настройки программы : cabac=1 / ref=4 / deblock=1:-2:-2 / analyse=0x3:0x113 / me=umh / subme=11 / psy=1 / psy_rd=1.00:0.15 / mixed_ref=1 / me_range=32 / chroma_me=1 / trellis=2 / 8x8dct=1 / cqm=0 / deadzone=21,11 / fast_pskip=0 / chroma_qp_offset=-3 / threads=6 / lookahead_threads=1 / sliced_threads=0 / nr=0 / decimate=1 / interlaced=0 / bluray_compat=0 / constrained_intra=0 / bframes=12 / b_pyramid=2 / b_adapt=2 / b_bias=0 / direct=1 / weightb=1 / open_gop=0 / weightp=2 / keyint=230 / keyint_min=23 / scenecut=40 / intra_refresh=0 / rc_lookahead=40 / rc=crf / mbtree=1 / crf=17.3 / qcomp=0.60 / qpmin=0 / qpmax=69 / qpstep=4 / vbv_maxrate=50000 / vbv_bufsize=62500 / crf_max=0.0 / nal_hrd=none / filler=0 / ip_ratio=1.40 / aq=1:1.00
Язык : English
Default : Да
Forced : Нет

Аудио #1
Идентификатор : 2
Формат : AC-3
Формат/Информация : Audio Coding 3
Коммерческое название : Dolby Digital
Идентификатор кодека : A_AC3
Продолжительность : 1 ч. 25 м.
Вид битрейта : Постоянный
Битрейт : 448 Кбит/сек
Каналы : 4 канала
Channel layout : L R C LFE
Частота : 48,0 КГц
Частота кадров : 31,250 кадров/сек (1536 SPF)
Битовая глубина : 16 бит
Метод сжатия : С потерями
Размер потока : 272 Мбайт (2%)
Заголовок : DVO CTC
Язык : Russian
ServiceKind/String : Complete Main
Default : Да
Forced : Нет

Аудио #2
Идентификатор : 3
Формат : DTS
Формат/Информация : Digital Theater Systems
Идентификатор кодека : A_DTS
Продолжительность : 1 ч. 25 м.
Вид битрейта : Постоянный
Битрейт : 1509 Кбит/сек
Каналы : 6 каналов
Channel layout : C L R Ls Rs LFE
Частота : 48,0 КГц
Частота кадров : 93,750 кадра/сек (512 SPF)
Битовая глубина : 24 бит
Метод сжатия : С потерями
Размер потока : 918 Мбайт (8%)
Заголовок : original
Язык : English
Default : Нет
Forced : Нет

Меню
00:00:00.000 : :Chapter 1
00:09:20.059 : :Chapter 2
00:17:29.256 : :Chapter 3
00:28:58.653 : :Chapter 4
00:41:32.156 : :Chapter 5
00:55:46.384 : :Chapter 6
01:07:39.972 : :Chapter 7
01:18:35.167 : :Chapter 8
01:25:00.762 : :Chapter 9



Скачать Путешествие в Ад через торрент https://d.radikal.ru/d04/1904/8b/b6e56b2bd088.jpg Скачать, смотреть онлайн Путешествие в Ад бесплантно в хорошем качестве Описание: Не все «ловушки для туристов», приманки из путеводителей, похожи друг на друга, как думали весёлые путешественники, исколесившие ... 5 10 1
Info! Золотая раздача, скачанное не засчитывается.
Торрент: Зарегистрирован [2019-04-21 07:04] · скачан: 5 раз
Статус: √ проверено
Размер: 10.77 GB
Как cкачать? Как скачать Путешествие в Ад через торрент | UTorrent

% Раздел Тема Автор DL S | L
Фильмы [HD 720p, 1080p] (Звук Cam, VO, DVO) [ 3.95 GB ] Путешествие в Ад / Tourist Trap | | 720p msltel Скачать
1 | 0

28-11-2019 20:33  


Отключить вcю реклaмy на сайте, в т.ч. и в плеере онлайн просмотра!

21-04-2019 08:27 Путешествие в Ад Скачать торрент  

23-04-2019 17:45 Путешествие в Ад Скачать торрент  

Свежак, прямо с грядки. =)))



    Дорогой пользователь! Огромная просьба, поблагодарите релизера, оцените раздачу и оставьте свои комментарий, если Вы скачали Путешествие в Ад через торрент бесплатно!!
    Комментировать посты могут только пользователи прошедшие не сложную регистрацию
    Показать сообщения:    


    Путешествие в Ад через торрент
    Скачать бесплатно Путешествие в Ад
    Путешествие в Ад скачать торрент
    Путешествие в Ад смотреть онлайн
    Cкачать фильм Путешествие в Ад бесплатно
    Путешествие в Ад скачать торрент в хорошем качестве
    Путешествие в Ад смотреть онлайн бесплатно в хорошем качестве
    Вы не можете начинать темы
    Вы не можете отвечать на сообщения
    Вы не можете редактировать свои сообщения
    Вы не можете удалять свои сообщения
    Вы не можете голосовать в опросах
    Вы не можете прикреплять файлы к сообщениям
    Вы можете скачивать файлы
    Путешествие в Ад / Tourist Trap [1979, ужасы, BDRip 1080p ] DVO смотреть онлайн, скачать торрент picoco.icu