MEGA NEWS Получи личный уникальный адрес сайта и защити себя от блокировок. Внимание количество ограничено!!!

iTunes

1+1

iTunes

мы

iTunes

1

iTunes

Чернобыль

iTunes

Ральф против интернета

Лицензия

ПШазам

Лицензия

Игра престолов

Лицензия

30
pack

ВАЖНО

!!Акция!!

Alien_RageХит недели

RePack

Resident Evil 21

ИГРА 18+

pack

RePack

Metro:Exodus

!!Акция!!

Alien_Rage

RePack

fifa19

RePack

Assassins Creed: Odyssey

RePack

NEED FOR SPEED™ PAYBACK

3 сезон

9 сезон

Бесстыжие 9 сезон

Все сериалы

все сериалы на PB.wtf

RePack

FAR CRY 5
Ребята, катастрофически не хватает 1900р. для оплаты серверов за АВГУСТ (всвязи с блокировками трафик упал в 3 раза), 1-2р., выручайте.
  

Ральф против интернета / Ralph Breaks the Internet (Фил Джонстон, Рич Мур) [2018, мультфильм, комедия, приключения, BDRip 1080p, 60 fps] DUB [iTunes] piratbit.org

Ральф против интернета через торрент piratbit.org

Качают: 1 [ 0 KB/s ]
Размер: 23.7 GB | Добавлен: 5 мес. 23 д. назад | Торрент скачан:13 раз
Скачать  

22-04-2019 07:10 Ральф против интернета Скачать торрент  

Ральф против интернета / Ralph Breaks the Internet«From the digital world behind Wreck-It Ralph and Zootopia»

Год выпуска: 2018
Страна: США
Жанр: мультфильм, комедия, приключения, семейный, фантастика
Продолжительность: 01:52:31
Перевод: Дублированный | iTunes
Субтитры: Русские, английские
Режиссер: Фил Джонстон, Рич Мур
В ролях:

Джон Си Райли (Ralph, озвучка), Сара Силверман (Vanellope, озвучка), Галь Гадот (Shank, озвучка), Тараджи П. Хенсон (Yesss, озвучка), Джек МакБрайер (Felix, озвучка), Джейн Линч (Calhoun, озвучка), Алан Тьюдик (KnowsMore, озвучка), Альфред Молина (Double Dan, озвучка), Эд О’Нил (Mr. Litwak, озвучка), Шон Джамброун (The Eboy, озвучка), Флула Борг (Maybe, озвучка), Тимоти С. Саймонс (Butcher Boy, озвучка)
Описание:
На этот раз Ральф и Ванилопа фон Кекс выйдут за пределы зала игровых автоматов и отправятся покорять бескрайние просторы интернета, который может и не выдержать сокрушительного обаяния громилы.
Рейтинг:

MPAA: PG - Рекомендуется присутствие родителей
Качество: BDRip 1080p
Формат: MKV
Видео: AVC | 1920 x 800 | 59.940 fps | 26.8 Мбит/сек
Аудио #1: AC-3| 5.1 | 48 kHz | 384 Кбит/сек | 16 bit | Дублированный (iTunes) | RUS
Аудио #2: DTS-HD MA| 5.1 | 48 kHz | 1509 Кбит/сек | 24 bit | Оригинал | ENG
Навигация по главам: есть

General
Unique ID : 211002028887347722961576969320325125555 (0x9EBD83382F47EE122DB8AE0388EB15B3)
Complete name : D:\2018 Ральф против интернета BDRip 1080p 60 fps.mkv
Format : Matroska
Format version : Version 4 / Version 2
File size : 23.7 GiB
Duration : 1h 52mn
Overall bit rate mode : Variable
Overall bit rate : 30.2 Mbps
Movie name : Ральф против интернета / Ralph Breaks the Internet (2018)
Encoded date : UTC 2019-02-21 14:52:28
Writing application : mkvmerge v22.0.0 ('At The End Of The World') 64-bit
Writing library : libebml v1.3.5 + libmatroska v1.4.8
DURATION : 01:51:37.391000000
NUMBER_OF_FRAMES : 2473
NUMBER_OF_BYTES : 75555
_STATISTICS_WRITING_APP : mkvmerge v22.0.0 ('At The End Of The World') 64-bit
_STATISTICS_WRITING_DATE_UTC : 2019-02-21 14:52:28
_STATISTICS_TAGS : BPS DURATION NUMBER_OF_FRAMES NUMBER_OF_BYTES
Video #1
ID : 1
Format : AVC
Format/Info : Advanced Video Codec
Format profile : High@L4.1
Format settings, CABAC : Yes
Format settings, ReFrames : 5 frames
Codec ID : V_MPEG4/ISO/AVC
Duration : 1h 52mn
Bit rate : 26.8 Mbps
Nominal bit rate : 25.0 Mbps
Width : 1 920 pixels
Height : 800 pixels
Display aspect ratio : 2.40:1
Frame rate : 59.940 fps
Color space : YUV
Chroma subsampling : 4:2:0
Bit depth : 8 bits
Scan type : Progressive
Bits/(Pixel*Frame) : 0.291
Stream size : 21.1 GiB (89%)
Writing library : x264 core 146 r2538 121396c
Encoding settings : cabac=1 / ref=5 / deblock=1:1:1 / analyse=0x3:0x113 / me=umh / subme=9 / psy=1 / psy_rd=0.40:0.00 / mixed_ref=1 / me_range=32 / chroma_me=1 / trellis=2 / 8x8dct=1 / cqm=0 / deadzone=21,11 / fast_pskip=1 / chroma_qp_offset=-2 / threads=12 / lookahead_threads=2 / sliced_threads=0 / nr=0 / decimate=1 / interlaced=0 / bluray_compat=0 / constrained_intra=0 / bframes=5 / b_pyramid=2 / b_adapt=2 / b_bias=0 / direct=3 / weightb=1 / open_gop=0 / weightp=2 / keyint=600 / keyint_min=60 / scenecut=40 / intra_refresh=0 / rc_lookahead=60 / rc=2pass / mbtree=1 / bitrate=25000 / ratetol=1.0 / qcomp=0.60 / qpmin=0 / qpmax=69 / qpstep=4 / cplxblur=20.0 / qblur=0.5 / vbv_maxrate=50000 / vbv_bufsize=50000 / nal_hrd=none / filler=0 / ip_ratio=1.40 / aq=1:0.60
Language : English
Default : Yes
Forced : No
DURATION : 01:52:31.095000000
NUMBER_OF_FRAMES : 404661
NUMBER_OF_BYTES : 21094842127
_STATISTICS_WRITING_APP : mkvmerge v22.0.0 ('At The End Of The World') 64-bit
_STATISTICS_WRITING_DATE_UTC : 2019-02-21 14:52:28
_STATISTICS_TAGS : BPS DURATION NUMBER_OF_FRAMES NUMBER_OF_BYTES
Audio #2
ID : 2
Format : AC-3
Format/Info : Audio Coding 3
Mode extension : CM (complete main)
Format settings, Endianness : Big
Codec ID : A_AC3
Duration : 1h 52mn
Bit rate mode : Constant
Bit rate : 384 Kbps
Channel(s) : 6 channels
Channel positions : Front: L C R, Side: L R, LFE
Sampling rate : 48.0 KHz
Bit depth : 16 bits
Compression mode : Lossy
Stream size : 309 MiB (1%)
Title : iTunes
Language : Russian
Default : Yes
Forced : Yes
Audio #3
ID : 3
Format : DTS
Format/Info : Digital Theater Systems
Format profile : MA / Core
Codec ID : A_DTS
Duration : 1h 52mn
Bit rate mode : Variable
Bit rate : 2 344 Kbps / 1 510 Kbps
Channel(s) : 8 channels / 6 channels
Channel positions : Front: L C R, Side: L R, Back: L R, LFE / Front: L C R, Side: L R, LFE
Sampling rate : 48.0 KHz
Bit depth : 24 bits
Compression mode : Lossless / Lossy
Title : Original
Language : English
Default : No
Forced : No
Text #4
ID : 4
Format : UTF-8
Codec ID : S_TEXT/UTF8
Codec ID/Info : UTF-8 Plain Text
Title : Forced
Language : Russian
Default : Yes
Forced : Yes
Text #5
ID : 5
Format : UTF-8
Codec ID : S_TEXT/UTF8
Codec ID/Info : UTF-8 Plain Text
Title : Full
Language : Russian
Default : No
Forced : No
Text #6
ID : 6
Format : UTF-8
Codec ID : S_TEXT/UTF8
Codec ID/Info : UTF-8 Plain Text
Title : Full
Language : English
Default : No
Forced : No
Text #7
ID : 7
Format : UTF-8
Codec ID : S_TEXT/UTF8
Codec ID/Info : UTF-8 Plain Text
Title : SDH
Language : English
Default : No
Forced : No
Menu
00:00:00.000 : en:00:00:00.000
00:04:09.666 : en:00:04:09.666
00:11:07.417 : en:00:11:07.417
00:17:28.923 : en:00:17:28.923
00:23:43.881 : en:00:23:43.881
00:27:54.589 : en:00:27:54.589
00:34:18.807 : en:00:34:18.807
00:41:39.956 : en:00:41:39.956
00:51:27.709 : en:00:51:27.709
00:58:04.606 : en:00:58:04.606
01:01:50.957 : en:01:01:50.957
01:06:17.306 : en:01:06:17.306
01:12:31.806 : en:01:12:31.806
01:19:10.120 : en:01:19:10.120
01:27:24.030 : en:01:27:24.030
01:38:26.775 : en:01:38:26.775
piratbit.org



Скачать Ральф против интернета через торрент https://a.radikal.ru/a43/1904/5b/c138ca8a44cf.png Скачать фильм Ральф против интернета через торрент бесплантно в хорошем качестве Описание: На этот раз Ральф и Ванилопа фон Кекс выйдут за пределы зала игровых автоматов и отправятся покорять бескрайние просторы ... 10 10 4
Торрент: Зарегистрирован [2019-04-22 07:10] · скачан: 13 раз
Статус: √ проверено
Размер: 23.7 GB
Как cкачать? Как скачать Ральф против интернета через торрент | qTorrent

% Раздел Тема Автор DL S | L
Зарубежные Мультфильмы (BDRip 1080p, 720p, Blu-ray, BD-Remux) [ 5.84 GB ] Ральф против интернета / Ralph Breaks the Internet [2018 мультфильм BDRip-HEVC 1080p ] DUB [] bober100 Скачать
3 | 1
Иностранные мультфильмы [ 1.46 GB ] Ральф против интернета / Ralph Breaks the Internet [2018 мультфильм BDRip-AVC] DUB [] bober100 Скачать
3 | 0
3D Мультфильмы [ 10.67 GB ] Ральф против интернета в 3Д / Ralph Breaks the Internet 3D [2018 мультфильм фантас BDRip 1080p] OverUnder / Вертикальная стереопара serega768 Скачать
2 | 0
3D Мультфильмы [ 8.59 GB ] Ральф против интернета 3Д / Ralph Breaks the Internet 3D [2018 мультфильм BDRip 1080p] [Half OverUnder / Вертикальная анаморфная стереопара] DUB [] bober100 Скачать
1 | 0
Ultra HD (UHD: 2K, 4K, 8K) [ 8.53 GB ] Ральф против интернета / Ralph Breaks the Internet [2018 мультфильм UHD BDRip 2160p] DUB [] sheker187 Скачать
1 | 0
Иностранные мультфильмы [ 1.46 GB ] Ральф против интернета / Ralph Breaks the Internet [2018 мультфильм BDRip] DUB [ BD EUR] bober100 Скачать
10 | 0
Зарубежные Мультфильмы (BDRip 1080p, 720p, Blu-ray, BD-Remux) [ 4.31 GB ] Ральф против интернета / Ralph Breaks the Internet [2018 мультфильм BDRip 720p] DUB [] bober100 Скачать
2 | 0


>> Регистрируемся здесь <<






Отзывы и комментарии о схеме читаем и пишем здесь: ---> Отзывы и комментарии о схеме

Новые благодарочки в телеграм довольных пользователей:
скриншот   скриншот   скриншот   скриншот   скриншот
    Дорогой пользователь! Огромная просьба, поблагодарите релизера, оцените раздачу и оставьте свои комментарий, если Вы скачали Ральф против интернета через торрент бесплатно! Внесите свою лепту в развитие PiratBit!
    Комментировать посты могут только пользователи прошедшие не сложную регистрацию
    Показать сообщения:    

    Ральф против интернета через торрент
    Скачать бесплатно Ральф против интернета
    Ральф против интернета скачать торрент
    Ральф против интернета смотреть онлайн
    Cкачать фильм Ральф против интернета бесплатно
    Ральф против интернета скачать торрент в хорошем качестве
    Ральф против интернета смотреть онлайн бесплатно в хорошем качестве


    Вы не можете начинать темы
    Вы не можете отвечать на сообщения
    Вы не можете редактировать свои сообщения
    Вы не можете удалять свои сообщения
    Вы не можете голосовать в опросах
    Вы не можете прикреплять файлы к сообщениям
    Вы можете скачивать файлы