Мега распродажа FORZA HORIZON 4 ULTIMATE+ВСЕ DLC+ОНЛАЙН всего за 499р. 349 руб. (супер цена). Внимание количество ограничено!!!

iTunes

1+1

iTunes

мы

iTunes

1

1 сезон

Чернобыль

1 сезон

Ральф против интернета

Лицензия

ПШазам

8 сезон

Игра престолов

Лицензия

30
pack

ВАЖНО

!!Акция!!

Alien_RageХит недели

RePack

Resident Evil 21

ИГРА 18+

pack

RePack

Metro:Exodus

!!Акция!!

Alien_Rage

RePack

fifa19

RePack

Assassins Creed: Odyssey

RePack

NEED FOR SPEED™ PAYBACK

3 сезон

9 сезон

Бесстыжие 9 сезон

Все сериалы

все сериалы на PB.wtf

RePack

FAR CRY 5
Ребята, катастрофически не хватает 2730р. для оплаты серверов за ИЮНЬ (всвязи с блокировками трафик упал в 3 раза), 1-2р., выручайте.
  

Блич / Bleach (Синсуке Сато) [2018, боевик, фантастика, фэнтези, BDRip 1080p] DUB [Flarrow Films] +MVO [AniDUB] piratbit.org

Блич через торрент piratbit.org

Размер: 10.24 GB | Добавлен: 3 мес. назад | Торрент скачан:33 раза
Скачать  

22-04-2019 09:41 Блич Скачать торрент  

Блич / Bleach Год выпуска: 2018
Страна: Япония
Жанр: боевик, фантастика, фэнтези
Продолжительность: 01:48:23
Перевод:

Дубляж (любительский, многоголосый) | Flarrow Films
Любительский (многоголосый) | AniDUB

Субтитры: Русские, английские, китайские

Режиссер: Синсуке Сато

rating


В ролях:

Сота Фукуси, Хана Сугисаки, Мияви, Эрина Мано, Масами Нагасава, Ёсукэ Эгути, Рё Ёсидзава, Таити Саотомэ, Ю Коянаги, Сэйити Танабэ

Описание:

Старшеклассник Итиго Куросаки с детства был способен видеть призраков. Однажды встряв в схватку с призрачным пожирателем душ, схватившем его сестрёнку, парень получает силы ангела смерти по имени Рукия. Но, перестаравшись, она случайно передала Итиго всю свою силу и теперь вынуждена притворяться обычной школьницей и жить в шкафу у своего нового знакомого. А Итиго отныне - новый синигами и борец со злыми духами, которого не так-то просто заставить тренироваться, чтобы противостоять другим пожирателям душ.

Качество: BDRip 1080p
Формат: MKV

Видео: AVC, 1920x802 (2.40:1), 23.976 fps, 11.4 Mb/s
Аудио#1: AC3, 48.0 KHz, 1 ch, 192 Kbps | RUS (Flarrow Films)
Аудио#2: AC3, 48.0 KHz, 6 ch, 448 Kbps | RUS (AniDUB)
Аудио#3: DTS, 48.0 KHz, 6 ch, 1509 Kbps | JAP
скриншот  скриншот  скриншот  скриншот  

General
Unique ID : 205617404483097805330764658436554256416 (0x9AB078BD4694805AAF4F6921825A7020)
Complete name : Bleach.2018.1080p.BDRip.mkv
Format : Matroska
Format version : Version 4
File size : 10.2 GiB
Duration : 1 h 48 min
Overall bit rate : 13.5 Mb/s
Encoded date : UTC 2019-04-22 07:59:54
Writing application : mkvmerge v8.3.0 ('Over the Horizon') 64bit
Writing library : libebml v1.3.1 + libmatroska v1.4.2

Video
ID : 1
Format : AVC
Format/Info : Advanced Video Codec
Format profile : High@L4.1
Format settings : CABAC / 5 Ref Frames
Format settings, CABAC : Yes
Format settings, ReFrames : 5 frames
Codec ID : V_MPEG4/ISO/AVC
Duration : 1 h 48 min
Bit rate : 11.4 Mb/s
Width : 1 920 pixels
Height : 802 pixels
Display aspect ratio : 2.40:1
Frame rate mode : Constant
Frame rate : 23.976 (24000/1001) FPS
Color space : YUV
Chroma subsampling : 4:2:0
Bit depth : 8 bits
Scan type : Progressive
Bits/(Pixel*Frame) : 0.308
Stream size : 8.61 GiB (84%)
Writing library : x264 core 129 r2245+704+36 8e61944 tMod+MixAQ [8-bit@4:2:0 X86_64]
Encoding settings : cabac=1 / ref=5 / deblock=1:-3:-3 / analyse=0x3:0x133 / me=umh / subme=11 / psy=1 / fade_compensate=0.00 / psy_rd=1.05:0.10 / mixed_ref=1 / me_range=64 / chroma_me=1 / trellis=2 / 8x8dct=1 / cqm=0 / deadzone=21,11 / fast_pskip=0 / chroma_qp_offset=-3 / threads=18 / lookahead_threads=3 / sliced_threads=0 / nr=0 / decimate=0 / interlaced=0 / bluray_compat=0 / constrained_intra=0 / fgo=0 / bframes=10 / b_pyramid=2 / b_adapt=2 / b_bias=0 / direct=3 / weightb=1 / open_gop=0 / weightp=2 / keyint=250 / keyint_min=23 / scenecut=40 / intra_refresh=0 / rc=2pass / mbtree=0 / bitrate=11374 / ratetol=1.0 / qcomp=0.70 / qpmin=0 / qpmax=69 / qpstep=4 / cplxblur=20.0 / qblur=0.5 / ip_ratio=1.40 / pb_ratio=1.30 / aq=1 / aq-strength=0.90 / aq-sensitivity=10.00 / aq-ifactor=1.00 / aq-pfactor=1.00 / aq-bfactor=1.00 / aq2=0
Language : Japanese
Default : Yes
Forced : No

Audio #1
ID : 2
Format : AC-3
Format/Info : Audio Coding 3
Commercial name : Dolby Digital
Codec ID : A_AC3
Duration : 1 h 48 min
Bit rate mode : Constant
Bit rate : 192 kb/s
Channel(s) : 1 channel
Channel layout : C
Sampling rate : 48.0 kHz
Frame rate : 31.250 FPS (1536 SPF)
Bit depth : 16 bits
Compression mode : Lossy
Stream size : 149 MiB (1%)
Title : Flarrow Films
Language : Russian
Default : Yes
Forced : No

Audio #2
ID : 3
Format : AC-3
Format/Info : Audio Coding 3
Commercial name : Dolby Digital
Codec ID : A_AC3
Duration : 1 h 48 min
Bit rate mode : Constant
Bit rate : 448 kb/s
Channel(s) : 6 channels
Channel layout : L R C LFE Ls Rs
Sampling rate : 48.0 kHz
Frame rate : 31.250 FPS (1536 SPF)
Bit depth : 16 bits
Compression mode : Lossy
Stream size : 347 MiB (3%)
Title : AniDUB
Language : Russian
Default : No
Forced : No

Audio #3
ID : 4
Format : DTS
Format/Info : Digital Theater Systems
Codec ID : A_DTS
Duration : 1 h 48 min
Bit rate mode : Constant
Bit rate : 1 509 kb/s
Channel(s) : 6 channels
Channel layout : C L R Ls Rs LFE
Sampling rate : 48.0 kHz
Frame rate : 93.750 FPS (512 SPF)
Bit depth : 24 bits
Compression mode : Lossy
Stream size : 1.14 GiB (11%)
Language : Japanese
Default : No
Forced : No

Text #1
ID : 5
Format : UTF-8
Codec ID : S_TEXT/UTF8
Codec ID/Info : UTF-8 Plain Text
Duration : 1 h 42 min
Bit rate : 48 b/s
Count of elements : 959
Stream size : 36.6 KiB (0%)
Language : Russian
Default : Yes
Forced : No

Text #2
ID : 6
Format : UTF-8
Codec ID : S_TEXT/UTF8
Codec ID/Info : UTF-8 Plain Text
Duration : 1 h 42 min
Bit rate : 27 b/s
Count of elements : 958
Stream size : 20.4 KiB (0%)
Language : English
Default : No
Forced : No

Text #3
ID : 7
Format : UTF-8
Codec ID : S_TEXT/UTF8
Codec ID/Info : UTF-8 Plain Text
Duration : 1 h 42 min
Bit rate : 26 b/s
Count of elements : 969
Stream size : 19.5 KiB (0%)
Title : Simplified
Language : Chinese
Default : No
Forced : No

Text #4
ID : 8
Format : UTF-8
Codec ID : S_TEXT/UTF8
Codec ID/Info : UTF-8 Plain Text
Duration : 1 h 42 min
Bit rate : 26 b/s
Count of elements : 969
Stream size : 19.5 KiB (0%)
Title : Traditional
Language : Chinese
Default : No
Forced : No

Menu
00:00:00.000 : en:00:00:00.000
00:03:47.769 : en:00:03:47.769
00:15:54.495 : en:00:15:54.495
00:24:24.379 : en:00:24:24.379
00:35:13.110 : en:00:35:13.110
00:46:39.630 : en:00:46:39.630
00:52:53.211 : en:00:52:53.211
01:05:20.750 : en:01:05:20.750
01:20:19.814 : en:01:20:19.814
01:28:21.504 : en:01:28:21.504
01:39:49.358 : en:01:39:49.358
01:43:10.392 : en:01:43:10.392
01:48:22.704 : en:01:48:22.704

piratbit.org



Скачать Блич через торрент https://i2.imageban.ru/out/2019/04/22/e788eb024faa620275eb9b133fd1eafc.png Скачать фильм Блич через торрент бесплантно в хорошем качестве Описание: Старшеклассник Итиго Куросаки с детства был способен видеть призраков. Однажды встряв в схватку с призрачным пожирателем душ, ... 10 10 2
Торрент: Зарегистрирован [2019-04-22 09:41] · скачан: 33 раз
Статус: √ проверено
Размер: 10.24 GB
Как cкачать? Как скачать Блич через торрент | qTorrent

% Раздел Тема Автор DL S | L
Аниме [DVDrip, WEB-DLRip, HDrip] [ 105.51 GB ] Блич [ТВ] / Bleach [1-366 из 366][RUSRUS JAP][2004-2012 сёнэн DVDRip/DTVRip] XITMAH Скачать
1 | 0
Аниме [DVDrip, WEB-DLRip, HDrip] [ 61.65 GB ] Блич / Bleach [Серии: 1-366 без филлеров!!!] [2004 аниме мультфильм . SATRip 720p VO] max12987 Скачать
1 | 2
Манга [ 2.63 GB ] Kubo Tite - Блич / Bleach [manga] [001 - 546] [2001 - 2013 сёнэн] [incomplete] Orange1990 Скачать
1 | 0
Разное [ 350 MB ] Публичный секс прямо на эскалаторе / Black Angelika [2013 All Sex SATRip] sheker187 Скачать
1 | 0
Аниме [DVDrip, WEB-DLRip, HDrip] [ 1.2 GB ] Блич 4: Врата ада / Gekijouban Bleach: Jigokuhen [2010 аниме мультфильм DVDRip двухголосый] byblackmexx Скачать
1 | 0
Аниме [DVDrip, WEB-DLRip, HDrip] [ 1.18 GB ] Блич 3 / Gekijô ban Bleach: Fade to Black - Kimi no na o yobu [2008 аниме мультфильм DVDRip одноголосый] byblackmexx Скачать
1 | 0
Аниме [DVDrip, WEB-DLRip, HDrip] [ 1.2 GB ] Блич Фильм 2 Восстание алмазной пыли / Gekijô ban Bleach: The DiamondDust Rebellion - Mô hitotsu no hyôrinmaru [2007 аниме мультфильм DVDRip одноголосый] byblackmexx Скачать
1 | 0


>> Регистрируемся здесь <<






Отзывы и комментарии о схеме читаем и пишем здесь: ---> Отзывы и комментарии о схеме

Новые благодарочки в телеграм довольных пользователей:
скриншот   скриншот   скриншот   скриншот   скриншот

22-04-2019 09:48 Блич Скачать торрент  

дубляж? какая-то ошибка?piratbit.org
Kbober100 писал(а):

Смотри сэмпл



11-07-2019 06:03 Блич Скачать торрент  

чет не может к пирам подключится.piratbit.org



    Дорогой пользователь! Огромная просьба, поблагодарите релизера, оцените раздачу и оставьте свои комментарий, если Вы скачали Блич через торрент бесплатно! Внесите свою лепту в развитие PiratBit!
    Комментировать посты могут только пользователи прошедшие не сложную регистрацию
    Показать сообщения:    

    Блич через торрент
    Скачать бесплатно Блич
    Блич скачать торрент
    Блич смотреть онлайн
    Cкачать фильм Блич бесплатно
    Блич скачать торрент в хорошем качестве
    Блич смотреть онлайн бесплатно в хорошем качестве


    Вы не можете начинать темы
    Вы не можете отвечать на сообщения
    Вы не можете редактировать свои сообщения
    Вы не можете удалять свои сообщения
    Вы не можете голосовать в опросах
    Вы не можете прикреплять файлы к сообщениям
    Вы можете скачивать файлы