смотреть онлайн / скачать торрент Оппенгеймер

MVO

смотреть онлайн / скачать торрент Убийца

Дубляж

смотреть онлайн / скачать торрент Монарх: Наследие монстров

1 сезон

Активация Call of Duty®: Modern Warfare® III

Deluxe

Активация Avatar Frontiers of Pandora ULTIMATE

Premium

Активация Atomic Heart - Annihilation Instinct

ВСЕ DLC

смотреть онлайн / скачать торрент Телохранитель на фрилансе

Дубляж

смотреть онлайн / скачать торрент Цикады

1 сезон

смотреть онлайн / скачать торрент Фарго / Сезон: 5

5 сезон

смотреть онлайн / скачать торрент Дочь болотного царя

MVO

Рекомендуем

Рекомендуем

ВАЖНО

ВАЖНО

скачать торрент Lords of the Fallen

Steam-Rip

ARMORED CORE™ VI FIRES OF RUBICON™

Steam-Rip

jed

RePack

PAYDAY 3

Пиратка

RDR2

RePack

Hogwarts Legacy

Steam-Rip

смотреть онлайн / скачать торрент Захваченный

Невафильм

смотреть онлайн / скачать торрент Острые козырьки 6 сезон

6 сезон

FAR CRY 6

RePack

скачать торрент Dead Island™ 2

EGS-Rip

скачать торрент The Quarry

Steam-Rip

  

Невезучие / La chèvre (Франсис Вебер / Francis Veber) [1981, комедия, криминал, приключения, BDRip-AVC] [Дубляж] [MVO]

Невезучие через торрент piratbit.org

Раздают: 1 [ 0 KB/s ]
Размер: 1.45 GB | Добавлен: 4 года 7 мес. назад | Торрент скачан:32 раза
assassins creed mirage активация

2019-04-22 16:54 Невезучие Скачать торрент  

Невезучие
La chèvre

«They're back! The comedy team beyond Comperes!»

Страна: Франция, Мексика, Мальта
Жанр: комедия, криминал, приключения

Год выпуска: 1981
Продолжительность: 01:33:34

Перевод №1: Профессиональный (полное дублирование) [Советский дубляж со вставками MVO]
Перевод №2: Профессиональный (многоголосый, закадровый) [Позитив Мультимедиа]
Субтитры: русские
Оригинальная аудиодорожка: нет

Режиссер: Франсис Вебер / Francis Veber

В ролях: Пьер Ришар, Жерар Депардье, Педро Армендарис мл., Коринн Шарби, Марица Оливарес, Андре Валарди, Хорхе Луке, Серхио Кальдерон, Мишель Робен, Робер Дальбан, Жаклин Ноэль, Мишель Фортен

Описание: Существует тип людей, страдающих хроническим невезением. Они опаздывают на поезда, проливают красное вино на белую одежду, на них падают кирпичи. Единственная дочь миллионера Мари, как раз из таких. Не повезло ей в очередной раз - пропала где-то в Латинской Америке.



Релиз:

Автор рипа: stalkerok

Сэмпл

Качество видео: BDRip-AVC [La chèvre 1981 1080p Blu-ray AVC DTS-HD MA 2.0]
Формат видео: MKV
Видео кодек: AVC
Аудио кодек: AC3
Видео: AVC, 1805 Кбит/сек, 830x500 (5:3), 24 кадр/сек
Аудио №1: AC3, 192 Кбит/сек, 48 КГц, 2.0 - русский | Советский дубляж со вставками MVO
Аудио №2: AC3, 224 Кбит/сек, 48 КГц, 2.0 - русский | Позитив Мультимедиа
Навигация по главам: есть
---[Information] [18.04.2019 12:33:19] x264 [info]: frame I:923 Avg QP:19.58 size: 51611
---[Information] [18.04.2019 12:33:19] x264 [info]: frame P:27246 Avg QP:21.10 size: 20917
---[Information] [18.04.2019 12:33:19] x264 [info]: frame B:106567 Avg QP:22.98 size: 6094

General
Unique ID : 6026401161815758380344171950231659057 (0x488A484696909633F8F2D4210662231)
Complete name : C:\temp\La chevre\La.Chevre.1981.BDRip.x264.2xRus.stalkerok.New-Team.mkv
Format : Matroska
Format version : Version 4 / Version 2
File size : 1.45 GiB
Duration : 1 h 33 min
Overall bit rate : 2 224 kb/s
Movie name : La chevre (La Chevre) (1981) | Rip by stalkerok
Encoded date : UTC 2019-04-18 10:13:04
Writing application : mkvmerge v31.0.0 ('Dolores In A Shoestand') 64-bit
Writing library : libebml v1.3.6 + libmatroska v1.4.9
Cover : Yes
Attachments : cover.jpg

Video
ID : 1
Format : AVC
Format/Info : Advanced Video Codec
Format profile : [email protected]
Format settings, CABAC : Yes
Format settings, ReFrames : 12 frames
Codec ID : V_MPEG4/ISO/AVC
Duration : 1 h 33 min
Bit rate : 1 805 kb/s
Width : 830 pixels
Height : 500 pixels
Display aspect ratio : 5:3
Original display aspect ratio : 5:3
Frame rate mode : Constant
Frame rate : 24.000 FPS
Color space : YUV
Chroma subsampling : 4:2:0
Bit depth : 8 bits
Scan type : Progressive
Bits/(Pixel*Frame) : 0.181
Stream size : 1.18 GiB (81%)
Title : La chevre (La Chevre) (1981) | Rip by stalkerok
Writing library : x264 core 157 r2935 545de2f
Encoding settings : cabac=1 / ref=12 / deblock=1:-2:-1 / analyse=0x3:0x133 / me=umh / subme=10 / psy=1 / psy_rd=1.00:0.00 / mixed_ref=1 / me_range=32 / chroma_me=1 / trellis=2 / 8x8dct=1 / cqm=0 / deadzone=21,11 / fast_pskip=0 / chroma_qp_offset=-2 / threads=12 / lookahead_threads=3 / sliced_threads=0 / nr=0 / decimate=1 / interlaced=0 / bluray_compat=0 / constrained_intra=0 / bframes=14 / b_pyramid=2 / b_adapt=2 / b_bias=0 / direct=3 / weightb=1 / open_gop=0 / weightp=2 / keyint=240 / keyint_min=23 / scenecut=40 / intra_refresh=0 / rc_lookahead=60 / rc=crf / mbtree=0 / crf=20.2 / qcomp=0.65 / qpmin=0 / qpmax=69 / qpstep=4 / vbv_maxrate=50000 / vbv_bufsize=62500 / crf_max=0.0 / nal_hrd=none / filler=0 / ip_ratio=1.40 / pb_ratio=1.30 / aq=3:1.00
Default : Yes
Forced : No

Audio #1
ID : 2
Format : AC-3
Format/Info : Audio Coding 3
Mode extension : CM (complete main)
Format settings, Endianness : Big
Codec ID : A_AC3
Duration : 1 h 33 min
Bit rate mode : Constant
Bit rate : 192 kb/s
Channel(s) : 2 channels
Channel positions : Front: L R
Sampling rate : 48.0 kHz
Frame rate : 31.250 FPS (1536 spf)
Compression mode : Lossy
Stream size : 128 MiB (9%)
Title : Дубляж
Language : Russian
Default : Yes
Forced : No

Audio #2
ID : 3
Format : AC-3
Format/Info : Audio Coding 3
Mode extension : CM (complete main)
Format settings, Endianness : Big
Codec ID : A_AC3
Duration : 1 h 33 min
Bit rate mode : Constant
Bit rate : 224 kb/s
Channel(s) : 2 channels
Channel positions : Front: L R
Sampling rate : 48.0 kHz
Frame rate : 31.250 FPS (1536 spf)
Compression mode : Lossy
Stream size : 150 MiB (10%)
Title : MVO Pozitive-Multimedia
Language : Russian
Default : No
Forced : No

Text
ID : 4
Format : UTF-8
Codec ID : S_TEXT/UTF8
Codec ID/Info : UTF-8 Plain Text
Duration : 1 h 29 min
Bit rate : 79 b/s
Count of elements : 998
Stream size : 52.0 KiB (0%)
Language : Russian
Default : No
Forced : No

Menu
00:00:00.000 : :Глава 01
00:08:47.458 : :Глава 02
00:17:56.750 : :Глава 03
00:24:37.791 : :Глава 04
00:31:38.250 : :Глава 05
00:38:36.583 : :Глава 06
00:45:58.208 : :Глава 07
00:52:15.625 : :Глава 08
01:01:27.416 : :Глава 09
01:07:53.666 : :Глава 10
01:13:59.583 : :Глава 11
01:25:27.208 : :Глава 12


Смотрeть онлайн Фильм Невезучие в хорошем HD 1080 качестве



Описание: Существует людей, страдающих хроническим невезением. Они опаздывают на поезда, проливают красное вино на белую одежду, на них ... https://i6.imageban.ru/out/2017/09/18/2ff75c0c358795c5946784cc1680714d.png https://i6.imageban.ru/out/2017/09/18/2ff75c0c358795c5946784cc1680714d.png 2019-04-22 16:54 Cмотреть онлайн Невезучие true ru Скачать Невезучие через торрент, смотреть онлайн Невезучие https://i6.imageban.ru/out/2017/09/18/2ff75c0c358795c5946784cc1680714d.png Скачать торрент Невезучие , смотреть онлайн Невезучие , бесплатно в хорошем качестве Описание: Существует людей, страдающих хроническим невезением. Они опаздывают на поезда, проливают красное вино на белую одежду, на них ... 10 10 1
Info! Золотая раздача, скачанное не засчитывается.
Торрент: Зарегистрирован [2019-04-22 16:54] · скачан: 32 раз
Статус: √ проверено
Размер: 1.45 GB
Как cкачать? Как скачать Невезучие через торрент | UTorrent | Поделиться в телеграм

% Раздел Тема Автор DL S | L
Классика зарубежного кино [ 1.86 GB ] Невезучие / La chèvre | MVO | HDTVRip-AVC sokol_ok Скачать
2 | 0
Классика зарубежного кино [ 2.65 GB ] Невезучие / La chèvre | MVO | BDRip-AVC sokol_ok Скачать
2 | 0

28-11-2019 20:33  


Отключить вcю реклaмy на сайте!

    Дорогой пользователь! Огромная просьба, поблагодарите релизера, оцените раздачу и оставьте свои комментарий, если Вы скачали Невезучие через торрент бесплатно!!
    Комментировать посты могут только пользователи прошедшие не сложную регистрацию
    Показать сообщения:    


    смотреть онлайн Невезучие
    Невезучие через торрент
    Скачать бесплатно Невезучие
    Невезучие скачать торрент
    Невезучие смотреть онлайн
    Cкачать фильм Невезучие бесплатно
    Невезучие скачать торрент в хорошем качестве
    Невезучие смотреть онлайн бесплатно в хорошем качестве
    Вы не можете начинать темы
    Вы не можете отвечать на сообщения
    Вы не можете редактировать свои сообщения
    Вы не можете удалять свои сообщения
    Вы не можете голосовать в опросах
    Вы не можете прикреплять файлы к сообщениям
    Вы можете скачивать файлы