Ссылка на приватное зеркало нашего сайта всего за 1$. Внимание количество ограничено!!!

2 сезон

iTunes

1 сезон

1

iTunes

iTunes

iTunes

1 сезон

RePack

30

ИГРА 18+

pack

ВАЖНО

!!Акция!!

Alien_RageХит недели

RePack

MK11
pack

Забери бонус

RePack

jed

!!Акция!!

Alien_Rage

RePack

fifa19

RePack

Assassins Creed: Odyssey

RePack

NEED FOR SPEED™ PAYBACK

4 сезон

9 сезон

Бесстыжие 9 сезон

Все сериалы

все сериалы на PB.wtf

RePack

FAR CRY 5
  

Невезучие / La chèvre (Франсис Вебер / Francis Veber) [1981, комедия, криминал, приключения, BDRip-AVC] [Dub] [MVO] [DVO] piratbit.org

Невезучие через торрент piratbit.org

Раздают: 1 [ 0 KB/s ]
Размер: 2.65 GB | Добавлен: 1 год 6 мес. назад | Торрент скачан:13 раз
Скачать  

22-04-2019 18:04 Невезучие Скачать торрент  

Невезучие
La chèvre

«They're back! The comedy team beyond Comperes!»

Страна: Франция, Мексика, Мальта
Жанр: комедия, криминал, приключения

Год выпуска: 1981
Продолжительность: 01:33:34

Перевод №1: Профессиональный (полное дублирование) [Советский дубляж со вставками MVO]
Перевод №2: Профессиональный (многоголосый, закадровый) [Позитив Мультимедиа]
Перевод №3: Профессиональный (двухголосый, закадровый) [ТВЦ]
Перевод №4: Профессиональный (многоголосый, закадровый) [ОРТ]
Субтитры: русские, английские, французские
Оригинальная аудиодорожка: французский

Режиссер: Франсис Вебер / Francis Veber

В ролях: Пьер Ришар, Жерар Депардье, Педро Армендарис мл., Коринн Шарби, Марица Оливарес, Андре Валарди, Хорхе Луке, Серхио Кальдерон, Мишель Робен, Робер Дальбан, Жаклин Ноэль, Мишель Фортен

Описание: Существует тип людей, страдающих хроническим невезением. Они опаздывают на поезда, проливают красное вино на белую одежду, на них падают кирпичи. Единственная дочь миллионера Мари, как раз из таких. Не повезло ей в очередной раз - пропала где-то в Латинской Америке.



Релиз:

Автор рипа: stalkerok

Сэмпл

Качество видео: BDRip-AVC [La chèvre 1981 1080p Blu-ray AVC DTS-HD MA 2.0]
Формат видео: MKV
Видео кодек: AVC
Аудио кодек: AC3
Видео: AVC, 3035 Кбит/сек, 956x576 (5:3), 24 кадр/сек
Аудио №1: AC3, 192 Кбит/сек, 48 КГц, 2.0 - русский | Советский дубляж со вставками MVO
Аудио №2: AC3, 224 Кбит/сек, 48 КГц, 2.0 - русский | Позитив Мультимедиа
Аудио №3: AC3, 192 Кбит/сек, 48 КГц, 2.0 - русский | ТВЦ | отдельно
Аудио №4: AC3, 192 Кбит/сек, 48 КГц, 2.0 - русский | ОРТ | отдельно
Аудио №5: AC3, 224 Кбит/сек, 48 КГц, 2.0 - французский | отдельно
Навигация по главам: есть
---[Information] [20.04.2019 21:19:38] x264 [info]: frame I:904 Avg QP:19.07 size: 71674
---[Information] [20.04.2019 21:19:38] x264 [info]: frame P:26548 Avg QP:20.61 size: 33243
---[Information] [20.04.2019 21:19:38] x264 [info]: frame B:107284 Avg QP:22.54 size: 11026

General
Unique ID : 84425803498866090707242264592988594992 (0x3F83D17C5AA1999B439DA90B5E296330)
Complete name : M:\temp\La Chevre\La.Chevre.1981.BDRip.x264.4xRus.Fre.stalkerok.New-Team\La.Chevre.1981.mkv
Format : Matroska
Format version : Version 4
File size : 2.26 GiB
Duration : 1 h 33 min
Overall bit rate : 3 454 kb/s
Movie name : La chèvre (La Chevre) (1981) | Rip by stalkerok
Encoded date : UTC 2019-04-21 10:17:49
Writing application : mkvmerge v33.1.0 ('Primrose') 64-bit
Writing library : libebml v1.3.7 + libmatroska v1.5.0
Cover : Yes
Attachments : cover.jpg

Video
ID : 1
Format : AVC
Format/Info : Advanced Video Codec
Format profile : High@L4.1
Format settings : CABAC / 12 Ref Frames
Format settings, CABAC : Yes
Format settings, RefFrames : 12 frames
Codec ID : V_MPEG4/ISO/AVC
Duration : 1 h 33 min
Bit rate : 3 036 kb/s
Width : 956 pixels
Height : 576 pixels
Display aspect ratio : 5:3
Frame rate mode : Constant
Frame rate : 24.000 FPS
Color space : YUV
Chroma subsampling : 4:2:0
Bit depth : 8 bits
Scan type : Progressive
Bits/(Pixel*Frame) : 0.230
Stream size : 1.98 GiB (88%)
Title : La chèvre (La Chevre) (1981) | Rip by stalkerok
Writing library : x264 core 157 r2969 d4099dd
Encoding settings : cabac=1 / ref=12 / deblock=1:-2:-1 / analyse=0x3:0x133 / me=umh / subme=10 / psy=1 / psy_rd=1.00:0.00 / mixed_ref=1 / me_range=32 / chroma_me=1 / trellis=2 / 8x8dct=1 / cqm=0 / deadzone=21,11 / fast_pskip=0 / chroma_qp_offset=-2 / threads=12 / lookahead_threads=3 / sliced_threads=0 / nr=0 / decimate=1 / interlaced=0 / bluray_compat=0 / constrained_intra=0 / bframes=14 / b_pyramid=2 / b_adapt=2 / b_bias=0 / direct=3 / weightb=1 / open_gop=0 / weightp=2 / keyint=240 / keyint_min=23 / scenecut=40 / intra_refresh=0 / rc_lookahead=60 / rc=crf / mbtree=0 / crf=19.6 / qcomp=0.65 / qpmin=0 / qpmax=69 / qpstep=4 / vbv_maxrate=50000 / vbv_bufsize=62500 / crf_max=0.0 / nal_hrd=none / filler=0 / ip_ratio=1.40 / pb_ratio=1.30 / aq=3:0.90
Default : Yes
Forced : No

Audio #1
ID : 2
Format : AC-3
Format/Info : Audio Coding 3
Commercial name : Dolby Digital
Codec ID : A_AC3
Duration : 1 h 33 min
Bit rate mode : Constant
Bit rate : 192 kb/s
Channel(s) : 2 channels
Channel layout : L R
Sampling rate : 48.0 kHz
Frame rate : 31.250 FPS (1536 SPF)
Bit depth : 16 bits
Compression mode : Lossy
Stream size : 128 MiB (6%)
Title : Dub
Language : Russian
Service kind : Complete Main
Default : Yes
Forced : No

Audio #2
ID : 3
Format : AC-3
Format/Info : Audio Coding 3
Commercial name : Dolby Digital
Codec ID : A_AC3
Duration : 1 h 33 min
Bit rate mode : Constant
Bit rate : 224 kb/s
Channel(s) : 2 channels
Channel layout : L R
Sampling rate : 48.0 kHz
Frame rate : 31.250 FPS (1536 SPF)
Bit depth : 16 bits
Compression mode : Lossy
Stream size : 150 MiB (6%)
Title : MVO Pozitive-Multimedia
Language : Russian
Service kind : Complete Main
Default : No
Forced : No

Text #1
ID : 4
Format : UTF-8
Codec ID : S_TEXT/UTF8
Codec ID/Info : UTF-8 Plain Text
Duration : 1 h 29 min
Bit rate : 79 b/s
Count of elements : 998
Stream size : 52.0 KiB (0%)
Language : Russian
Default : No
Forced : No

Text #2
ID : 5
Format : UTF-8
Codec ID : S_TEXT/UTF8
Codec ID/Info : UTF-8 Plain Text
Duration : 1 h 30 min
Bit rate : 51 b/s
Count of elements : 999
Stream size : 34.6 KiB (0%)
Language : French
Default : No
Forced : No

Text #3
ID : 6
Format : UTF-8
Codec ID : S_TEXT/UTF8
Codec ID/Info : UTF-8 Plain Text
Duration : 1 h 32 min
Bit rate : 36 b/s
Count of elements : 886
Stream size : 24.5 KiB (0%)
Language : English
Default : No
Forced : No

Menu
00:00:00.000 : :Chapter 01
00:08:47.458 : :Chapter 02
00:17:56.750 : :Chapter 03
00:24:37.791 : :Chapter 04
00:31:38.250 : :Chapter 05
00:38:36.583 : :Chapter 06
00:45:58.208 : :Chapter 07
00:52:15.625 : :Chapter 08
01:01:27.416 : :Chapter 09
01:07:53.666 : :Chapter 10
01:13:59.583 : :Chapter 11
01:25:27.208 : :Chapter 12
piratbit.org



Скачать Невезучие через торрент http://i6.imageban.ru/out/2017/09/18/2ff75c0c358795c5946784cc1680714d.png Скачать фильм Невезучие через торрент бесплантно в хорошем качестве Описание: Существует людей, страдающих хроническим невезением. Они опаздывают на поезда, проливают красное вино на белую одежду, на них ... 5 10 1
Info! Золотая раздача, скачанное не засчитывается.
Торрент: Зарегистрирован [2019-04-22 18:04] · скачан: 13 раз
Статус: √ проверено
Размер: 2.65 GB
Как cкачать? Как скачать Невезучие через торрент | qTorrent

% Раздел Тема Автор DL S | L
Классика зарубежного кино [ 1.86 GB ] Невезучие / La chèvre [1981 HDTVRip-AVC] [MVO] [DVO] sokol_ok Скачать
2 | 0
Классика зарубежного кино [ 1.45 GB ] Невезучие / La chèvre [1981 BDRip-AVC] [MVO] sokol_ok Скачать
2 | 0
Классика зарубежного кино [ 2.19 GB ] Невезучие / La Chevre [1981 HDTVRip-AVC 2xMVO Original ] Anonymous Скачать
1 | 0
Фильмы до 2000 г. [ 3.16 GB ] Невезучие / La chevre [1981 BDRip-AVC] DUB 2 x MVO DVO msltel Скачать
1 | 0
Фильмы [HD 720p, 1080p] (Хороший звук DUB, MVO) [ 12.88 GB ] Невезучие / La chevre [1981 BDRip 1080p] DUB 2 x MVO DVO msltel Скачать
1 | 0
Фильмы [HD 720p, 1080p] (Хороший звук DUB, MVO) [ 5.31 GB ] Невезучие / La chevre [1981 BDRip 720p] DUB 2 x MVO DVO msltel Скачать
1 | 0

28-11-2019 20:33  

Отключить всю рекламу на сайте

    Дорогой пользователь! Огромная просьба, поблагодарите релизера, оцените раздачу и оставьте свои комментарий, если Вы скачали Невезучие через торрент бесплатно! Внесите свою лепту в развитие PiratBit!
    Комментировать посты могут только пользователи прошедшие не сложную регистрацию
    Показать сообщения:    

    Невезучие через торрент
    Скачать бесплатно Невезучие
    Невезучие скачать торрент
    Невезучие смотреть онлайн
    Cкачать фильм Невезучие бесплатно
    Невезучие скачать торрент в хорошем качестве
    Невезучие смотреть онлайн бесплатно в хорошем качестве


    Вы не можете начинать темы
    Вы не можете отвечать на сообщения
    Вы не можете редактировать свои сообщения
    Вы не можете удалять свои сообщения
    Вы не можете голосовать в опросах
    Вы не можете прикреплять файлы к сообщениям
    Вы можете скачивать файлы