Мега распродажа FORZA HORIZON 4 ULTIMATE+ВСЕ DLC+ОНЛАЙН всего за 499р. 349 руб. (супер цена). Внимание количество ограничено!!!

iTunes

1+1

iTunes

мы

iTunes

1

1 сезон

Чернобыль

1 сезон

Ральф против интернета

Лицензия

ПШазам

8 сезон

Игра престолов

Лицензия

30
pack

ВАЖНО

!!Акция!!

Alien_RageХит недели

RePack

Resident Evil 21

ИГРА 18+

pack

RePack

Metro:Exodus

!!Акция!!

Alien_Rage

RePack

fifa19

RePack

Assassins Creed: Odyssey

RePack

NEED FOR SPEED™ PAYBACK

3 сезон

9 сезон

Бесстыжие 9 сезон

Все сериалы

все сериалы на PB.wtf

RePack

FAR CRY 5
Ребята, катастрофически не хватает 2730р. для оплаты серверов за ИЮНЬ (всвязи с блокировками трафик упал в 3 раза), 1-2р., выручайте.
  

Бейблэйд Бёрст / Beyblade Burst / 1 сезон: / 1-51 из 51 серий (Ямагути Кэнтаро) [2016, мультсериал, WEBRip (1080p), Дубляж] piratbit.org

Бейблэйд Бёрст через торрент piratbit.org

Качают: 1 [ 0 KB/s ]
Размер: 8.64 GB | Добавлен: 2 мес. 26 д. назад | Торрент скачан:2 раза
Скачать  

23-04-2019 11:05 Бейблэйд Бёрст Скачать торрент  

Бейблэйд Бёрст (1 сезон) / Beyblade Burst
Год выпуска: 2016
Страна: Япония
Жанр: мультсериал
Продолжительность: 51 x ~ 00:21:00
Перевод: Дубляж
Субтитры: нет

Режиссер: Ямагути Кэнтаро

Описание: Герои мультсериала соревнуются с помощью двух волчков на круглом поле. Суть игры состоит в том, чтобы вытолкнуть за пределы круга волчок (бей) противника, используя скорость и массу своего волчка. С первого взгляда игра может показаться простой, но для победы в ней необходимы навыки и техника, которые оттачиваются путем долгих тренировок. Такой волчок-бей есть и у главного героя по имени Вальт Аои. Он новичок, но быстро осваивает правила, и ему очень везет в игре. Сражаясь в бейблэйд, мальчик находит новых друзей и совершенствует свое мастерство. Даже еще не осознавая этого, он загорается идеей стать лучшим игроком во всем мире!

Качество: WEBRip (1080p)
Формат: MP4
Видео кодек: AVC
Аудио кодек: AAC
Видео: MPEG-4 AVC, (1920x1080),1000 Кбит/с, 25.000 кадра/сек
Аудио#1: AAC,2 ch,126 kbps (Rus) 48.0 KHz Дублированный
скриншот   скриншот   скриншот  

Тип потока: Видео
Длительность: 00:21:26
Кодек: AVC
Кодек/описание: Advanced Video Codec
Кодек/профиль: High@L4.0
Кодек/ID: avc1
Кодек/CABAC: Yes
Кодек/ReFrames: 3 frames
Размеры изображения: 1920 x 1080 (16:9)
Частота кадров: 25.000 fps
Частота кадров/тип: Variable
Размер потока: 185 MiB (90%)
Битрейт: 1 208 Kbps
Цветовое пространство: YUV
Тип развёртки: Progressive
Колориметрия: 4:2:0
Глубина: 8 bits
:
Тип потока: Звук #1
Длительность: 00:21:26.990
Кодек: AAC
Кодек/описание: Advanced Audio Codec
Кодек/профиль: LC
Кодек/ID: 40
Частота дискретизации: 44.1 KHz
Каналов: 2 channels
Битрейт: 126 Kbps
Битрейт/тип: Constant
Размер потока: 19.3 MiB (9%)
Метод сжатия: Lossy

piratbit.org



Скачать Бейблэйд Бёрст через торрент http://pic1.kartinco.top/images/12/w2xxb.jpg Скачать фильм Бейблэйд Бёрст через торрент бесплантно в хорошем качестве Описание: Герои мультсериала соревнуются с помощью двух волчков на круглом поле. Суть игры состоит в том, чтобы вытолкнуть за пределы круга ... 10 10 1
Торрент: Зарегистрирован [2019-04-23 11:05] · скачан: 2 раз
Статус: √ проверено
Размер: 8.64 GB
Как cкачать? Как скачать Бейблэйд Бёрст через торрент | qTorrent


>> Регистрируемся здесь <<






Отзывы и комментарии о схеме читаем и пишем здесь: ---> Отзывы и комментарии о схеме

Новые благодарочки в телеграм довольных пользователей:
скриншот   скриншот   скриншот   скриншот   скриншот
    Дорогой пользователь! Огромная просьба, поблагодарите релизера, оцените раздачу и оставьте свои комментарий, если Вы скачали Бейблэйд Бёрст через торрент бесплатно! Внесите свою лепту в развитие PiratBit!
    Комментировать посты могут только пользователи прошедшие не сложную регистрацию
    Показать сообщения:    

    Бейблэйд Бёрст через торрент
    Скачать бесплатно Бейблэйд Бёрст
    Бейблэйд Бёрст скачать торрент
    Бейблэйд Бёрст смотреть онлайн
    Cкачать фильм Бейблэйд Бёрст бесплатно
    Бейблэйд Бёрст скачать торрент в хорошем качестве
    Бейблэйд Бёрст смотреть онлайн бесплатно в хорошем качестве


    Вы не можете начинать темы
    Вы не можете отвечать на сообщения
    Вы не можете редактировать свои сообщения
    Вы не можете удалять свои сообщения
    Вы не можете голосовать в опросах
    Вы не можете прикреплять файлы к сообщениям
    Вы можете скачивать файлы