1 сезон

3 сезон

iTunes

1

iTunes

DUB Netflix

iTunes

13

1 сезон

RePack

30

Deluxe

pack

Легкие деньги

ВАЖНО

ИГРА 18+

pack

RePack

MK11

RePack

jed

RePack

fifa19

RePack

RDR2

RePack

NEED FOR SPEED™ PAYBACK

4 сезон

9 сезон

Бесстыжие 9 сезон

Все сериалы

все сериалы на PB.wtf

RePack

FAR CRY 5

Anonymous, доброй ночи, мы не успеваем до 1 числа собрать деньги на оплату серверов, помогите нам пожалуйста в это трудное время. В качестве благодарности мы отключим Вам всю рекламу на сайте (укажите свой ник в строку Ваше имя)!

×
  
Magnet ссылка

Реальные пацаны / Сезон: 11 / Серии: 1-20 из 20 (Жанна Кадникова) [2019, комедия, WEB-DL 1080p] piratbit.org

Реальные пацаны через торрент piratbit.org

Размер: 16.49 GB | Добавлен: 2 года 1 мес. назад | Торрент скачан:164 раза
Скачать  

23-04-2019 18:40 Реальные пацаны Скачать торрент  

Реальные пацаны Год выпуска: 2019
Производство: Гуд Стори Медиа
Жанр: комедия
Продолжительность: ~00:22:00 серия
Субтитры: нет

Режиссёр: Жанна Кадникова

В ролях: Николай Наумов, Зоя Бербер, Антон Богданов, Владимир Селиванов, Станислав Тляшев, Мария Скорницкая, Валентина Мазунина, Марина Федункив, Армен Бежанян, Игорь Ознобихин, Алексей Базанов, Анастасия Плоскова, Сергей Ершов, Татьяна Ронзина, Любовь Рудометова, Юлия Гришнина, Михаил Чуднов, Юрий Богомолов, Василий Бичев, Анна Шепелева

Описание: «Реальные пацаны» из гастрольного тура прошлого сезона вернутся в Пермь пожинать плоды своей популярности. Больше никогда не работать на дядю! Больше никогда не зависеть от Иваныча! Вечный кайф и полная идиллия. Только вот семейные заботы не дают выдохнуть. Но пацаны смотря вдаль и верят, что даже самая суровая «бытовуха» в итоге разрулится. Так-то всегда так бывает! В новом сезоне героев сериала ждут еще более взрослые и серьезные заботы. ЭКО, ипотека, свой бизнес – настало время новых возможностей! На протяжении 9-ти лет героям сериала удавалось уникальным образом выпутываться из самых разных передряг, сохраняя при этом важные жизненные ценности. Доброта, юмор, любовь и дружба – то, на чем держится мир «Реальных пацанов» не только в сериале, но и в реальной жизни. А значит, проблемы обязательно решатся, даже если немного накосячить…[/font-serif1]

rating

Качество: WEB-DL 1080p
Формат: MKV
Видео кодек: H.264
Аудио кодек: AC3

Видео: MPEG4 AVC Video, H264, 16:9, 1920x1080, 25 fps, ~5000 kbps, 0.096 bit/pixel
Аудио: AC3 Dolby Digital, 48.0 kHz, 2/0 (L,R) ch, 192 kbps
Раздача ведётся путём добавления новых серий, при каждом добавлении создаётся новый торрент. Чтобы начать докачку новой серии, пользователям необходимо сделать следующее:

- Остановить скачивание.
- Удалить старый торрент у себя из клиента (старые серии удалять не надо).
- Скачать новый торрент и запустить его у себя в клиенте вместо старого, при этом указать клиенту путь в старую папку куда и должно происходить скачивание новых серий.

Ваш клиент при этом должен произвести хеширование (проверку) старой папки (если не производит сам - помогите ему сделать это), и будет докачивать только те серии которых у вас ещё нет. Старые серии при этом не удаляются, а продолжают раздаваться!
Если вы уже удалили старые серии, то предотвратить повторную закачку старых серий можно, отжав галочку в соответствующих местах при запуске нового торрента. По возможности, желательно не удалять старые серии как можно дольше, чтобы релизер не столько продолжал раздавать старые серии, а смог сконцентрироваться на новых.
eneral
Unique ID : 202016584528966195303142433766804746053 (0x97FAFA9BDBDCC04DB4735B0B53A6EF45)
Complete name : D:\Realnyje.pacany.S11.2019.WEB-DL.(1080p).Getty\Realnyje.pacany.S11e01.2019.WEB-DL.(1080p).Getty.mkv
Format : Matroska
Format version : Version 4 / Version 2
File size : 788 MiB
Duration : 21 min 30 s
Overall bit rate mode : Constant
Overall bit rate : 5 126 kb/s
Movie name : Realnyje.pacany.S11e01.2019.WEB-DL.(1080p).Getty
Encoded date : UTC 2019-03-25 16:52:43
Writing application : mkvmerge v7.8.0 ('River Man') 32bit built on Mar 27 2015 16:18:02
Writing library : libebml v1.3.1 + libmatroska v1.4.2

Video
ID : 1
Format : AVC
Format/Info : Advanced Video Codec
Format profile : Baseline@L4
Format settings : 4 Ref Frames
Format settings, CABAC : No
Format settings, ReFrames : 4 frames
Codec ID : V_MPEG4/ISO/AVC
Duration : 21 min 30 s
Bit rate mode : Constant
Bit rate : 5 000 kb/s
Width : 1 920 pixels
Height : 1 080 pixels
Display aspect ratio : 16:9
Frame rate mode : Constant
Frame rate : 25.000 FPS
Standard : PAL
Color space : YUV
Chroma subsampling : 4:2:0
Bit depth : 8 bits
Scan type : Progressive
Bits/(Pixel*Frame) : 0.096
Stream size : 758 MiB (96%)
Default : Yes
Forced : No
Color range : Limited
Color primaries : BT.709
Transfer characteristics : BT.709
Matrix coefficients : BT.709

Audio
ID : 2
Format : AC-3
Format/Info : Audio Coding 3
Codec ID : A_AC3
Duration : 21 min 29 s
Bit rate mode : Constant
Bit rate : 192 kb/s
Channel(s) : 2 channels
Channel positions : Front: L R
Sampling rate : 48.0 kHz
Frame rate : 31.250 FPS (1536 SPF)
Bit depth : 16 bits
Compression mode : Lossy
Stream size : 29.5 MiB (4%)
Service kind : Complete Main
Default : Yes
Forced : No
скриншот  скриншот  скриншот  скриншот  

скриншот  скриншот  скриншот  скриншот  
piratbit.org



Скачать Реальные пацаны через торрент https://i109.fastpic.ru/big/2019/0325/84/2ceb80e9605f12a1fd7334d7e3158684.jpg Скачать фильм Реальные пацаны через торрент бесплантно в хорошем качестве Описание: «Реальные пацаны» из гастрольного тура прошлого сезона вернутся в Пермь пожинать плоды своей популярности. Больше никогда не ... 10 10 9
Info! Золотая раздача, скачанное не засчитывается.
Торрент: Зарегистрирован [2019-04-23 18:40] · скачан: 164 раз
Статус: √ проверено
Размер: 16.49 GB
Как cкачать? Как скачать Реальные пацаны через торрент | UTorrent

% Раздел Тема Автор DL S | L
Наши сериалы [ 5.82 GB ] Реальные пацаны. Возвращение / 7 Сезон: / 1-11 Серия из 20 [2014 Россия WEB-DL 720p) GEKADOL Скачать
1 | 0
TNT serials [ 8.87 GB ] Реальные пацаны / Сезон: 11 / Серии: 1-20 из 20 [2019 WEBRip 720p] DEVI Скачать
1 | 0
TNT serials [ 5.77 GB ] Реальные пацаны / Сезон: 11 / Серии: 1-20 из 20 [2019 ситком WEBRip-AVC] bober100 Скачать
1 | 0
TNT serials [ 5.86 GB ] Реальные пацаны / Сезон: 11 / Серии: 1-20 из 20 [2019 ситком WEB-DLRip] bober100 Скачать
1 | 0
TNT serials [ 25.51 GB ] Реальные пацаны / Сезон: 11 / Серии: 1-20 из 20 [2019 ситком HDTV 1080i] bober100 Скачать
1 | 0

28-11-2019 20:33  

Отключить всю рекламу на сайте

    Дорогой пользователь! Огромная просьба, поблагодарите релизера, оцените раздачу и оставьте свои комментарий, если Вы скачали Реальные пацаны через торрент бесплатно! Внесите свою лепту в развитие PiratBit!
    Комментировать посты могут только пользователи прошедшие не сложную регистрацию
    Показать сообщения:    

    Реальные пацаны через торрент
    Скачать бесплатно Реальные пацаны
    Реальные пацаны скачать торрент
    Реальные пацаны смотреть онлайн
    Cкачать фильм Реальные пацаны бесплатно
    Реальные пацаны скачать торрент в хорошем качестве
    Реальные пацаны смотреть онлайн бесплатно в хорошем качестве


    Вы не можете начинать темы
    Вы не можете отвечать на сообщения
    Вы не можете редактировать свои сообщения
    Вы не можете удалять свои сообщения
    Вы не можете голосовать в опросах
    Вы не можете прикреплять файлы к сообщениям
    Вы можете скачивать файлы