Доктор Стрэндж

Лицензия

Добыча

Дубляж

Уэнсдэй

1 сезон

Тор

Дубляж

В эфире

Дубляж

Там, где раки поют

MVO

Властелин колец

1 сезон

Deluxe

pack

Рекомендуем

30

Пиратка

ВАЖНО

ВАЖНО

Ghostwire

Пиратка

jed

RePack

nioh2

RePack

RDR2

RePack

NEED FOR SPEED™ PAYBACK

RePack

скачать торрент

Кинопоиск HD

Острые козырьки 6 сезон

6 сезон

FAR CRY 6

RePack

скачать торрент

Лицензия

скачать торрент

MVO

1

1 сезон

скачать торрент

1 сезон

скачать торрент

Лицензия

  

Омен: Перерождение / The Prodigy (Николас МакКарти) [2019, ужасы, триллер, WEB-DLRip-AVC] Дубляж [iTunes] - ExKinoRay

Омен: Перерождение через торрент piratbit.org

Раздают: 2 [ 147 KB/s ]
Размер: 1.56 GB | Добавлен: 3 года 7 мес. назад | Торрент скачан:2054 раза
Смотреть онлайн | Скачать   

25-04-2019 08:46 Омен: Перерождение Скачать торрент  

Название: Омен: Перерождение
Оригинальное название: The Prodigy
Год выхода: 2019
Жанр: Ужасы, триллер
Режиссер: Николас МакКарти
В ролях: Тейлор Шиллинг, Джексон Роберт Скотт, Колм Фиор, Питер Муни, Пол Фото, Бриттани Аллен, Паула Бодро, Элиза Мулчерри, Олунике Аделийи, Джанет Лэнд, Мартин Роуч, Байрон Абалос, Эшли Блэк, Николас МакКарти

Описание: История молодой матери, которая обеспокоена странным поведением своего восьмилетнего сына. Она считает, что причина такого поведения — нечто сверхъестественное.

rating

Страна: США, Гонконг
Студия: Orion Pictures, Vinson Films, XYZ Films
Продолжительность: 01:31:45
Перевод: Дублированный | iTunes
Субтитры: Английские

Формат: MKV
Качество: WEB-DLRip-AVC
Видео: MPEG-4 AVC, 1024x426 (2.40:1), 23.976 fps, 1658 Kbps, 0.138 bit/pixel
Аудио #01: 48 kHz, AC3, 5.1, 384 Kbps | iTunes | RUS |
Аудио #02: 48 kHz, AC3, 5.1, 384 Kbps | Оригинал | ENG |
General
Unique ID : 196856467270379407475762503227619827589 (0x94192D2F83297B6C9AF8119E984A5F85)
Complete name : D:\The.Prodigy.2019.iTunes.AVC.ExKinoRay.mkv
Format : Matroska
Format version : Version 2
File size : 1.56 GiB
Duration : 1 h 31 min
Overall bit rate : 2 427 kb/s
Movie name : The Prodigy 2019 from ExKinoRay
Encoded date : UTC 2019-04-25 08:23:57
Writing application : mkvmerge v5.6.0 ('Kenya Kane') built on May 27 2012 16:44:04
Writing library : libebml v1.2.3 + libmatroska v1.3.0

Video
ID : 1
Format : AVC
Format/Info : Advanced Video Codec
Format profile : High@L4.1
Format settings, CABAC : Yes
Format settings, ReFrames : 11 frames
Codec ID : V_MPEG4/ISO/AVC
Duration : 1 h 31 min
Bit rate : 1 658 kb/s
Width : 1 024 pixels
Height : 426 pixels
Display aspect ratio : 2.40:1
Frame rate mode : Constant
Frame rate : 23.976 (24000/1001) FPS
Color space : YUV
Chroma subsampling : 4:2:0
Bit depth : 8 bits
Scan type : Progressive
Bits/(Pixel*Frame) : 0.159
Stream size : 1.03 GiB (66%)
Title : Enigma
Writing library : x264 core 152 r2851 ba24899
Encoding settings : cabac=1 / ref=11 / deblock=1:-2:-2 / analyse=0x3:0x113 / me=umh / subme=10 / psy=1 / psy_rd=1.04:0.10 / mixed_ref=1 / me_range=32 / chroma_me=1 / trellis=2 / 8x8dct=1 / cqm=0 / deadzone=21,11 / fast_pskip=0 / chroma_qp_offset=-3 / threads=12 / lookahead_threads=3 / sliced_threads=0 / nr=0 / decimate=0 / interlaced=0 / bluray_compat=0 / constrained_intra=0 / bframes=12 / b_pyramid=2 / b_adapt=2 / b_bias=0 / direct=3 / weightb=1 / open_gop=0 / weightp=2 / keyint=240 / keyint_min=23 / scenecut=40 / intra_refresh=0 / rc=2pass / mbtree=0 / bitrate=1658 / ratetol=1.0 / qcomp=0.60 / qpmin=0 / qpmax=51 / qpstep=4 / cplxblur=20.0 / qblur=0.5 / ip_ratio=1.40 / pb_ratio=1.30 / aq=3:0.90
Language : English
Default : Yes
Forced : No
Color range : Limited
Color primaries : BT.709
Transfer characteristics : BT.709
Matrix coefficients : BT.709

Audio #1
ID : 2
Format : AC-3
Format/Info : Audio Coding 3
Mode extension : CM (complete main)
Format settings, Endianness : Big
Codec ID : A_AC3
Duration : 1 h 31 min
Bit rate mode : Constant
Bit rate : 384 kb/s
Channel(s) : 6 channels
Channel positions : Front: L C R, Side: L R, LFE
Sampling rate : 48.0 kHz
Frame rate : 31.250 FPS (1536 spf)
Compression mode : Lossy
Stream size : 252 MiB (16%)
Title : iTunes
Language : Russian
Default : Yes
Forced : No

Audio #2
ID : 3
Format : AC-3
Format/Info : Audio Coding 3
Mode extension : CM (complete main)
Format settings, Endianness : Big
Codec ID : A_AC3
Duration : 1 h 31 min
Bit rate mode : Constant
Bit rate : 384 kb/s
Channel(s) : 6 channels
Channel positions : Front: L C R, Side: L R, LFE
Sampling rate : 48.0 kHz
Frame rate : 31.250 FPS (1536 spf)
Compression mode : Lossy
Stream size : 252 MiB (16%)
Language : English
Default : No
Forced : No

Text #1
ID : 4
Format : UTF-8
Codec ID : S_TEXT/UTF8
Codec ID/Info : UTF-8 Plain Text
Title : Full
Language : English
Default : No
Forced : No

Text #2
ID : 5
Format : UTF-8
Codec ID : S_TEXT/UTF8
Codec ID/Info : UTF-8 Plain Text
Title : SDH
Language : English
Default : No
Forced : No

Menu
00:00:00.000 : en:1
00:10:06.000 : en:2
00:20:02.000 : en:3
00:33:59.000 : en:4
00:40:22.000 : en:5
00:50:15.000 : en:6
01:01:36.000 : en:7
01:09:53.000 : en:8
01:21:23.000 : en:9
Релиз от: VK релиз-группы

Автор релиза: Enigma



Скачать Омен: Перерождение через торрент https://st-kp-yandex-net.translate.goog/images/film_iphone/iphone360_1115481.jpg Скачать, смотреть онлайн Омен: Перерождение бесплантно в хорошем качестве Описание: История молодой матери, которая обеспокоена странным поведением своего восьмилетнего сына. Она считает, что причина такого ... 9.4 10 28
Info! Золотая раздача, скачанное не засчитывается.
Торрент: Зарегистрирован [2019-04-25 08:46] · скачан: 2 054 раз
Статус: √ проверено
Размер: 1.56 GB
Как cкачать? Как скачать Омен: Перерождение через торрент | UTorrent

% Раздел Тема Автор DL S | L
Фильмы 2019-2020 [DVDrip, WEB-DLRip, HDrip] (DUB, MVO) [ 1.51 GB ] Омен: Перерождение / The Prodigy | iTunes | BDRip-AVC Enigma2010 Скачать
3 | 0

28-11-2019 20:33  


Отключить вcю реклaмy на сайте, в т.ч. и в плеере онлайн просмотра!

27-04-2019 13:33 Омен: Перерождение Скачать торрент  

Не так хорош филим.



30-04-2019 21:49 Омен: Перерождение Скачать торрент  

Sanekzade1989 писал(а):

Не так хорош филим.

казнить нельзя помиловать!



02-05-2019 18:34 Омен: Перерождение Скачать торрент  

Kos2008 писал(а):

Sanekzade1989 писал(а):

Не так хорош филим.

казнить нельзя помиловать!




03-05-2019 15:33 Омен: Перерождение Скачать торрент  

Kos2008 писал(а):

Sanekzade1989 писал(а):

Не так хорош филим.

казнить нельзя помиловать!

Сытый, конному, не пеший.



08-11-2020 08:51 Омен: Перерождение Скачать торрент  

Ну вечно конец обосрут. А так фильмец годный.



    Дорогой пользователь! Огромная просьба, поблагодарите релизера, оцените раздачу и оставьте свои комментарий, если Вы скачали Омен: Перерождение через торрент бесплатно!!
    Комментировать посты могут только пользователи прошедшие не сложную регистрацию
    Показать сообщения:    


    Омен: Перерождение через торрент
    Скачать бесплатно Омен: Перерождение
    Омен: Перерождение скачать торрент
    Омен: Перерождение смотреть онлайн
    Cкачать фильм Омен: Перерождение бесплатно
    Омен: Перерождение скачать торрент в хорошем качестве
    Омен: Перерождение смотреть онлайн бесплатно в хорошем качестве
    Вы не можете начинать темы
    Вы не можете отвечать на сообщения
    Вы не можете редактировать свои сообщения
    Вы не можете удалять свои сообщения
    Вы не можете голосовать в опросах
    Вы не можете прикреплять файлы к сообщениям
    Вы можете скачивать файлы
    Омен: Перерождение / The Prodigy [2019, ужасы, триллер, WEB-DLRip-AVC] Дубляж [iTunes] - ExKinoRay смотреть онлайн, скачать торрент picoco.icu