Ссылка на приватное зеркало всего за 1$. Внимание количество ограничено!!!

iTunes

1+1

iTunes

мы

WEB-DL

1

iTunes

Чернобыль

iTunes

Ральф против интернета

Лицензия

ПШазам

Лицензия

Оно 2

Лицензия

30
pack

Вам бонус

ВАЖНО

!!Акция!!

Alien_RageХит недели

RePack

Resident Evil 21

ИГРА 18+

pack

RePack

jed

!!Акция!!

Alien_Rage

RePack

fifa19

RePack

Assassins Creed: Odyssey

RePack

NEED FOR SPEED™ PAYBACK

3 сезон

9 сезон

Бесстыжие 9 сезон

Все сериалы

все сериалы на PB.wtf

RePack

FAR CRY 5
Ребята, катастрофически не хватает 1900р. для оплаты серверов за Октябрь (всвязи с блокировками трафик упал в 3 раза), 1-2р., выручайте.
  

Агенты Щ.И.Т / Agents of S.H.I.E.L.D. / Сезон: 1 / Серии: 1-22 из 22 (Винс Мисиано, Бобби Рот, Милан Чейлов) [2013-....., США, фантастика, боевик, драма, BDRip - HEVC 1080p 12 bit 60 FPS] Dub (Невафильм) + Original piratbit.org

Агенты Щ.И.Т через торрент piratbit.org

Размер: 46.53 GB | Добавлен: 7 мес. назад | Торрент скачан:0 раз
Скачать  

29-04-2019 16:20 Агенты Щ.И.Т Скачать торрент  

Агенты «Щ.И.Т.» (сериал 2013 – ...) / Agents of S.H.I.E.L.D.
««Not all heroes are super»»

Год выпуска: 2013
Страна: США

Жанр: фантастика,
Продолжительность: 00:44:05
Перевод: Дубляж - [Невафильм]
Режиссер: Кевин Танчароэн, Билл Джирхарт, Винс Мисиано
В ролях:

Кларк Грегг (Phil Coulson), Минг-На (Melinda May), Бретт Далтон (Grant Ward), Хлоя Беннет (Daisy «Skye» Johnson), Йен де Кестекер (Leo Fitz), Элизабет Хенстридж (Jemma Simmons), Ник Блад (Lance Hunter), Эдрианн Палики (Bobbi Morse), Генри Симмонс (Alphonso «Mack» Mackenzie), Наталия Кордова-Бакли (Elena «Yo-Yo» Rodriguez), Люк Митчелл (Lincoln Campbell), Джон Ханна (Holden Radcliffe)
Описание:
Действия сериала разворачиваются после событий фильма «Мстители». Агент Фил Колсон возвращается в правоохранительную организацию под названием Щ. И. Т., собрав небольшую команду профессионалов, он начинает работу над новыми делами, которые порой бывают очень странными.
Мировая премьера: 19 июля 2013

Качество: BDRip 1080p Rip by DD2D3
Формат: MKV
Видео: V_MPEGH/ISO/HEVC, 1920x1080 (16:9), 5378 kbps, 59,940 fps, 0,043 bpp
Аудио №1: русский / AC3 / 2.0 / 48 kHz / 192 kbps / ||
Аудио №2: английский / DTS-HD / 5.1 / 48 kHz / 3500 kbps / 24 bit (Core: 5.1 / 48 kHz / 1509 kbps / 24 bit)


Общее
Уникальный идентификатор : 236822717334509760928393560345396312561 (0xB22A6572C6404F3AAB0C75994B86F9F1)
Полное имя : D:\Агенты «Щ.И.Т.» - Agents of S.H.I.E.L.D (сериал 2013 ...) BDRip - HEVC 1080p 12 bit 60 FPS\Сезон 1\1. Пилот - Pilot.mkv
Формат : Matroska
Версия формата : Version 4
Размер файла : 2,80 Гбайт
Продолжительность : 44 м. 5 с.
Режим общего битрейта : Переменный
Общий поток : 9076 Кбит/сек
Дата кодирования : UTC 2019-04-28 18:01:13
Программа кодирования : mkvmerge v10.0.0 ('To Drown In You') 32bit
Библиотека кодирования : libebml v1.3.4 + libmatroska v1.4.5
Attachments : poster

Видео
Идентификатор : 1
Формат : HEVC
Формат/Информация : High Efficiency Video Coding
Профиль формата : @L4.1@Main
Идентификатор кодека : V_MPEGH/ISO/HEVC
Продолжительность : 44 м. 5 с.
Битрейт : 5378 Кбит/сек
Ширина : 1920 пикселей
Высота : 1080 пикселей
Соотношение сторон : 16:9
Режим частоты кадров : Постоянный
Частота кадров : 59,940 (60000/1001) кадров/сек
Цветовое пространство : YUV
Субдискретизация насыщенности : 4:2:0
Битовая глубина : 12 бит
Бит/(Пиксели*Кадры) : 0.043
Размер потока : 1,66 Гбайт (59%)
Библиотека кодирования : x265 2.3+33-0b7d54dbb71a87a0:[Windows][MSVC 1800][64 bit] 12bit: KG7x [x265.ru]
Настройки программы : cpuid=1173503 / frame-threads=2 / numa-pools=4 / wpp / no-pmode / no-pme / no-psnr / no-ssim / log-level=2 / input-csp=1 / input-res=1920x1080 / interlace=0 / total-frames=158576 / level-idc=41 / high-tier=1 / uhd-bd=0 / ref=3 / no-allow-non-conformance / no-repeat-headers / annexb / no-aud / no-hrd / info / hash=0 / no-temporal-layers / open-gop / min-keyint=25 / keyint=250 / bframes=4 / b-adapt=2 / b-pyramid / bframe-bias=0 / rc-lookahead=20 / lookahead-slices=6 / scenecut=40 / no-intra-refresh / ctu=64 / min-cu-size=8 / no-rect / no-amp / max-tu-size=32 / tu-inter-depth=1 / tu-intra-depth=1 / limit-tu=0 / rdoq-level=0 / dynamic-rd=0.00 / no-ssim-rd / signhide / no-tskip / nr-intra=0 / nr-inter=0 / no-constrained-intra / strong-intra-smoothing / max-merge=2 / limit-refs=3 / no-limit-modes / me=1 / subme=2 / merange=57 / temporal-mvp / weightp / no-weightb / no-analyze-src-pics / deblock=0:0 / no-sao / no-sao-non-deblock / rd=3 / no-early-skip / no-rskip / no-fast-intra / no-tskip-fast / no-cu-lossless / no-b-intra / rdpenalty=0 / psy-rd=4.00 / psy-rdoq=0.00 / no-rd-refine / analysis-mode=0 / no-lossless / cbqpoffs=0 / crqpoffs=0 / rc=abr / bitrate=5376 / qcomp=0.60 / qpstep=1 / stats-write=0 / stats-read=2 / cplxblur=20.0 / qblur=0.5 / ipratio=1.10 / pbratio=1.00 / aq-mode=0 / aq-strength=0.00 / no-cutree / zone-count=0 / no-strict-cbr / qg-size=64 / rc-grain / qpmax=69 / qpmin=0 / sar=1 / overscan=0 / videoformat=5 / range=0 / colorprim=2 / transfer=2 / colormatrix=2 / chromaloc=0 / display-window=0 / max-cll=0,0 / min-luma=0 / max-luma=4095 / log2-max-poc-lsb=8 / vui-timing-info / vui-hrd-info / slices=1 / opt-qp-pps / opt-ref-list-length-pps / no-multi-pass-opt-rps / scenecut-bias=0.05 / no-opt-cu-delta-qp / no-aq-motion / no-hdr / no-hdr-opt / refine-level=5 / no-limit-sao
Default : Да
Forced : Нет

Аудио #1
Идентификатор : 2
Формат : AC-3
Формат/Информация : Audio Coding 3
Коммерческое название : Dolby Digital
Идентификатор кодека : A_AC3
Продолжительность : 44 м. 5 с.
Вид битрейта : Постоянный
Битрейт : 192 Кбит/сек
Каналы : 2 канала
Channel layout : L R
Частота : 48,0 КГц
Частота кадров : 31,250 кадров/сек (1536 SPF)
Битовая глубина : 16 бит
Метод сжатия : С потерями
Размер потока : 60,6 Мбайт (2%)
Язык : Russian
ServiceKind/String : Complete Main
Default : Да
Forced : Нет

Аудио #2
Идентификатор : 3
Формат : DTS XLL
Формат/Информация : Digital Theater Systems
Коммерческое название : DTS-HD Master Audio
Идентификатор кодека : A_DTS
Продолжительность : 44 м. 5 с.
Вид битрейта : Переменный
Битрейт : 3500 Кбит/сек
Каналы : 6 каналов
Channel layout : C L R Ls Rs LFE
Частота : 48,0 КГц
Частота кадров : 93,750 кадра/сек (512 SPF)
Битовая глубина : 24 бит
Метод сжатия : Без потерь
Размер потока : 1,08 Гбайт (39%)
Язык : English
Default : Нет
Forced : Нет
Episode 1: Пилот (Pilot)
Episode 2: 0-8-4
Episode 3: Разброд и шатание (Ragtag)
Episode 4: Глаз-алмаз (Eye-Spy)
Episode 5: Девушка в цветастом платье (Girl in the Flower Dress)
Episode 6: ФЗЗТ (FZZT)
Episode 7: Центр (The Hub)
Episode 8: Колодец (The Well)
Episode 9: Восстановление (Repairs)
Episode 10: Мост (The Bridge)
Episode 11: Волшебное место (The Magical Place)
Episode 12: Семена (Seeds)
Episode 13: П.У.Т.И. (T.R.A.C.K.S.)
Episode 14: Т.А.И.Т.И. (T.A.H.I.T.I.)
Episode 15: Безотказные (Yes Men)
Episode 16: Конец начала (End of the Beginning)
Episode 17: Поворот, поворот, поворот (Turn, Turn, Turn)
Episode 18: Провидение (Providence)
Episode 19: Свет во тьме (The Only Light in the Darkness)
Episode 20: Ничего личного (Nothing Personal)
Episode 21: Разброд и шатание (Ragtag)
Episode 22: Начало конца (Beginning of the End)
скриншот  скриншот  скриншот  скриншот  скриншот  скриншот  скриншот  скриншот  скриншот  скриншот  

© Оформление by DD2D3 piratbit.org



Скачать Агенты Щ.И.Т через торрент https://funkyimg.com/i/2TxNC.jpg Скачать фильм Агенты Щ.И.Т через торрент бесплантно в хорошем качестве Описание: Действия сериала разворачиваются после событий фильма «Мстители». Агент Фил Колсон возвращается в правоохранительную организацию ... 5.5 10 2
Торрент: Зарегистрирован [2019-04-29 16:20] · скачан: 0 раз
Статус: √ проверено
Размер: 46.53 GB
Как cкачать? Как скачать Агенты Щ.И.Т через торрент | qTorrent

28-11-2019 20:33  

Отключить всю рекламу на сайте

08-06-2019 12:09 Агенты Щ.И.Т Скачать торрент  

На раздачу встаньте кто-нибудь.piratbit.org



    Дорогой пользователь! Огромная просьба, поблагодарите релизера, оцените раздачу и оставьте свои комментарий, если Вы скачали Агенты Щ.И.Т через торрент бесплатно! Внесите свою лепту в развитие PiratBit!
    Комментировать посты могут только пользователи прошедшие не сложную регистрацию
    Показать сообщения:    

    Агенты Щ.И.Т через торрент
    Скачать бесплатно Агенты Щ.И.Т
    Агенты Щ.И.Т скачать торрент
    Агенты Щ.И.Т смотреть онлайн
    Cкачать фильм Агенты Щ.И.Т бесплатно
    Агенты Щ.И.Т скачать торрент в хорошем качестве
    Агенты Щ.И.Т смотреть онлайн бесплатно в хорошем качестве


    Вы не можете начинать темы
    Вы не можете отвечать на сообщения
    Вы не можете редактировать свои сообщения
    Вы не можете удалять свои сообщения
    Вы не можете голосовать в опросах
    Вы не можете прикреплять файлы к сообщениям
    Вы можете скачивать файлы