2 сезон

iTunes

WEBRip

1

2 сезон

iTunes

1 сезон

1 сезон

RePack

30

Ultimate

ВАЖНО

ИГРА 18+

pack

RePack

MK11
pack

Легкие деньги

RePack

jed

RePack

fifa19

RePack

RDR2

RePack

NEED FOR SPEED™ PAYBACK

4 сезон

9 сезон

Бесстыжие 9 сезон

Все сериалы

все сериалы на PB.wtf

RePack

FAR CRY 5

Anonymous, доброй ночи, мы не успеваем собрать деньги на оплату серверов за февраль, помогите нам пожалуйста в это трудное время. В качестве благодарности мы отключим Вам всю рекламу на сайте (укажите свой ник в строку Ваше имя)!

×
  
Magnet ссылка

Юрчишины / Юрчишини / Сезон: 1 / Серии: 1-18 из 36 (Александр Березань) [2019, комедия, WEBRip] piratbit.org

Юрчишины через торрент piratbit.org

Размер: 5.38 GB | Добавлен: 1 год 10 мес. назад | Торрент скачан:13 раз
Скачать  

30-04-2019 06:05 Юрчишины Скачать торрент  

Юрчишины / Юрчишини Год выпуска: 2019
Страна: Украина
Жанр: комедия
Продолжительность: ~ 00:25:00
Перевод: Отсутствует (Украинский оригинал)
Субтитры: отсутствуют

Режиссер: Александр Березань

В ролях:

Георгий Делиев, Владимир Канивец, Леся Самаева, Валерий Швец, Валентина Вовченко, Святослав Жмурко, Александр Мельник, Екатерина Варченко, Евгения Мякенькая, Владимир Ращук, Анатолий Зиновенко, Дмитрий Вивчарюк и др.

Описание:

Отец семейства - бывший зэк Ник (Георгий Делиев) однажды утром возвращается домой из тюрьмы и узнает, что его сын "предатель", ведь работает теперь в новой полиции. Дочь постоянно налаживает личную жизнь и воспитывает 14-летнего сына, который мечтает стать рэпером. Не все гладко у бывшего зэка и с работой. Его бросает тот, за кого он отсидел срок и теперь ему приходится работать скромным охранником на автостоянке.

Качество: WEBRip
Формат: AVI

Видео: XviD build 73, 720x400 (16:9), 25.000 fps, ~ 1550 Kbps (~ 0.215 bit/pixel)
Аудио: 48.0 kHz, AC3, 2/0 ch, 192 kbps
скриншот  скриншот  скриншот  скриншот  скриншот  

General
Complete name: D:RazdachiJurchishiny.2019.WEBRip.GeneralFilmJurchishiny.e01.avi
Format: AVI
Format/Info: Audio Video Interleave
File size: 347 MiB
Duration: 27 min 43 s
Overall bit rate: 1 752 kb/s
Writing application: VirtualDubMod 1.5.10.3 | www.virtualdub-fr.org || (build 2550/release)
Writing library: VirtualDubMod build 2550/release

Video
ID: 0
Format: MPEG-4 Visual
Format profile: Advanced Simple@L5
Format settings: BVOP1 / Custom Matrix
Format settings, BVOP: 1
Format settings, QPel: No
Format settings, GMC: No warppoints
Format settings, Matrix: Custom
Codec ID: XVID
Codec ID/Hint: XviD
Duration: 27 min 43 s
Bit rate: 1 550 kb/s
Width: 720 pixels
Height: 400 pixels
Display aspect ratio: 16:9
Frame rate: 25.000 FPS
Color space: YUV
Chroma subsampling: 4:2:0
Bit depth: 8 bits
Scan type: Progressive
Compression mode: Lossy
Bits/(Pixel*Frame): 0.215
Stream size: 307 MiB (88%)
Writing library: XviD 73

Audio
ID: 1
Format: AC-3
Format/Info: Audio Coding 3
Commercial name: Dolby Digital
Codec ID: 2000
Duration: 27 min 43 s
Bit rate mode: Constant
Bit rate: 192 kb/s
Channel(s): 2 channels
Channel layout: L R
Sampling rate: 48.0 kHz
Frame rate: 31.250 FPS (1536 SPF)
Bit depth: 16 bits
Compression mode: Lossy
Stream size: 38.1 MiB (11%)
Alignment: Split accross interleaves
Interleave, duration: 40 ms (1.00 video frame)
Interleave, preload duratio: 500 ms
Service kind: Complete Main

Когда раздача ведётся путём добавления новых серий, при каждом добавлении создётся новый торрент. Чтобы начать докачку новой серии, пользователям необходимо сделать следующее:
(1) остановить скачивание,
(2) удалить старый торрент у себя из клиента (старые серии удалять не надо),
(3) скачать новый торрент и запустить его у себя в клиенте вместо старого, при этом указать клиенту путь в старую папку, куда и должно происходить скачивание новых серий.
Ваш клиент при этом должен произвести хеширование (проверку) старой папки (если не производит сам - помогите ему сделать это), и будет докачивать только те серии, которых у вас ещё нет. Старые серии при этом не удаляются, а продолжают раздаваться!
Eсли вы уже удалили старые серии, то предотвратить повторную закачку старых серий можно, отжав галочку в соответсвующих местах при запуске нового торрента. По возможности, желательно не удалять старые серии как можно дольше, чтобы релизер не столько продолжал раздавать старые серии, а смог сконцентрироваться на новых.
piratbit.org



Скачать Юрчишины через торрент https://i109.fastpic.ru/big/2019/0426/f0/8619aafbb4c27a731efb7e1930920df0.jpg Скачать фильм Юрчишины через торрент бесплантно в хорошем качестве Описание: Отец семейства - бывший зэк Ник (Георгий Делиев) однажды утром возвращается домой из тюрьмы и узнает, что его сын "предатель", ... 10 10 3
Торрент: Зарегистрирован [2019-04-30 06:05] · скачан: 13 раз
Статус: √ проверено
Размер: 5.38 GB
Как cкачать? Как скачать Юрчишины через торрент | UTorrent

28-11-2019 20:33  

Отключить всю рекламу на сайте

    Дорогой пользователь! Огромная просьба, поблагодарите релизера, оцените раздачу и оставьте свои комментарий, если Вы скачали Юрчишины через торрент бесплатно! Внесите свою лепту в развитие PiratBit!
    Комментировать посты могут только пользователи прошедшие не сложную регистрацию
    Показать сообщения:    

    Юрчишины через торрент
    Скачать бесплатно Юрчишины
    Юрчишины скачать торрент
    Юрчишины смотреть онлайн
    Cкачать фильм Юрчишины бесплатно
    Юрчишины скачать торрент в хорошем качестве
    Юрчишины смотреть онлайн бесплатно в хорошем качестве


    Вы не можете начинать темы
    Вы не можете отвечать на сообщения
    Вы не можете редактировать свои сообщения
    Вы не можете удалять свои сообщения
    Вы не можете голосовать в опросах
    Вы не можете прикреплять файлы к сообщениям
    Вы можете скачивать файлы