MEGA SALE -50% FORZA HORIZON 4 ULTIMATE+ВСЕ DLC+ОНЛАЙН всего за 599р. 299 руб. (супер цена). Внимание количество ограничено!!!

iTunes

1+1

iTunes

мы

iTunes

1

iTunes

Чернобыль

iTunes

Ральф против интернета

Лицензия

ПШазам

Лицензия

Игра престолов

Лицензия

30
pack

ВАЖНО

!!Акция!!

Alien_RageХит недели

RePack

Resident Evil 21

ИГРА 18+

pack

RePack

Metro:Exodus

!!Акция!!

Alien_Rage

RePack

fifa19

RePack

Assassins Creed: Odyssey

RePack

NEED FOR SPEED™ PAYBACK

3 сезон

9 сезон

Бесстыжие 9 сезон

Все сериалы

все сериалы на PB.wtf

RePack

FAR CRY 5
Ребята, катастрофически не хватает 7730р. для оплаты серверов за АВГУСТ (всвязи с блокировками трафик упал в 3 раза), 1-2р., выручайте.
  

Сын / The Son / Сезон: 2 / Серии: 1-10 из 10 (Кевин Даулинг, Джереми Уэбб, Олатунде Осунсанми) [2019, драма, вестерн, WEB-DL 1080p] MVO [LostFilm] piratbit.org

Сын через торрент piratbit.org

Раздают: 4 [ 804 KB/s ]
Размер: 28.93 GB | Добавлен: 2 мес. 17 д. назад | Торрент скачан:32 раза
Скачать  

30-04-2019 18:06 Сын Скачать торрент  

Сын / The Son Год выпуска: 2019
Страна: США
Жанр: драма, вестерн
Продолжительность: ~00:45:00 серия
Перевод: Профессиональный многоголосый | LostFilm
Субтитры: Английские (SDH)

Режиссер: Кевин Даулинг, Джереми Уэбб, Олатунде Осунсанми

rating

В ролях:

Сидни Лукас (Джинни МакКаллоу), Шэйн Грэхэм (Чарльз МакКаллоу), Генри Гаррет (Пит МакКаллоу), Элизабет Фрэнсис (Цветок Прерий), Дэвид Салливан (Мэтт Уэнтворт), Джереми Бобб (Джин Монахан), Пирс Броснан (Илай МакКаллоу), Паола Нунес (Мария Гарсиа), Седрик Даплчейн (Шериф Дарт)

Описание:

Единственный жанр, в котором современное американское телевидение не успело создать проект, способный занять место в истории, - это классический вестерн. Среди множества более-менее успешных шоу только "Ад на колесах" от телеканала AMC может претендовать на звание главного представителя жанра на малых экранах. Логично, что после его успеха руководство AMC решило вновь затронуть схожую тему. Однако их новый вестерн "Сын" рассказывает зрителю не о времени расцвета Дикого Запада, а о его закате. На дворе начало XX века, в Мексике который год идет гражданская война, а жители Техаса вовлечены в последний крупный внутренний конфликт. В основу сюжетной линии положен одноименный исторический бестселлер Филиппа Мейера - писателя, номинированного за это произведение на Пулитцеровскую премию. Мейер также занял должность сценариста и одного из продюсеров сериала. Как и печатный оригинал, драма на примере одной семьи во главе с влиятельным землевладельцем Илаем МакКаллоу (Пирс Броснан) показывает момент смерти Старого Запада. Особое внимание создатели проекта во главе с шоураннером Кевином Мерфи ("Отчаянные домохозяйки", "Непокорная Земля") и самим Мейером уделяют тому, что сделало Америку такой, какую мы видим ее сейчас.

Сюжет:
Илай МакКаллоу Пирс Броснан - крупнейший землевладелец во всем Техасе. Несмотря на почтенный возраст, он не потерял хватку и понимает, что времена меняются. Плантации и ранчо скоро окончательно уйдут в прошлое, а будущее останется за нефтью, скрытой в глубинах техасской земли. Попыткам Илая развивать новый бизнес мешают козни конкурентов, крупный военный конфликт и внутрисемейные распри. Старший сын, выросший в тени отца, делает все наперекор Илаю. Внучка, хоть и видит в нем пример настоящего человека, не может смириться с правилами мужского мира, в котором выросла. Параллельно действие разворачивается во времена молодости Илая, когда его семья стала жертвой команчей. После той кровавой расправы выжили только МакКаллоу и его брат Мартин Сет Меривезер, но оба попали в плен к индейцам. Жизнь научила Илая, что выживает сильнейший, а ради правильных целей хороши любые средства. Неволя и череда трагических событий сделали его жестоким и несгибаемым человеком, виртуозно наживающим себе врагов. Но его желание разбогатеть настолько велико, что помешать ему не сможет ни Бог, ни черт, не говоря уже о таких мелочах, как моральные принципы. На этой земле есть нефть, и Илай МакКаллоу во что бы то ни стало до нее доберется, даже если придется пролить реки крови и предать самых близких.

Качество: WEB-DL 1080p | Без заставки и логотипа
Формат: MKV

Видео: 1920x1080 at 23.976 fps, MPEG-4 AVC, ~8147 kbps avg
Аудио#1 Russian: 48 kHz, E-AC3, 3/2 (L,C,R,l,r) + LFE ch, ~640.00 kbps avg
Аудио#2 English: 48 kHz, E-AC3, 3/2 (L,C,R,l,r) + LFE ch, ~640.00 kbps avg
скриншот  скриншот  скриншот  скриншот  скриншот  

General
Unique ID : 179960561638426757055407929138192252892 (0x876324B8EE44BD143742F3566F16FFDC)
Complete name : The.Son.S02E01.Numunuu.1080p.AMZN.WEB-DL.H.264.RUS.LF.DDP5.1-EniaHD.mkv
Format : Matroska
Format version : Version 4
File size : 3.03 GiB
Duration : 45 min 59 s
Overall bit rate : 9 430 kb/s
Movie name : The Son, Season 2 / Numunuu
Track name/Position : 1
Track name/Total : 0
Deion : Young Eli leads a daring Comanche raid into Mexico in 1852; in 1915, the McCullough family confronts a threat to their growing oil business.
Released date : 2019-04-28T01:00:00
Writing application : mkvmerge v33.1.0 ('Primrose') 64-bit
Writing library : libebml v1.3.7 + libmatroska v1.5.0
Cover : Yes
Attachments : small_cover.jpg / cover.jpg

Video
ID : 1
Format : AVC
Format/Info : Advanced Video Codec
Format profile : High@L4
Format settings : CABAC / 4 Ref Frames
Format settings, CABAC : Yes
Format settings, ReFrames : 4 frames
Codec ID : V_MPEG4/ISO/AVC
Duration : 45 min 59 s
Bit rate mode : Constant
Bit rate : 8 147 kb/s
Nominal bit rate : 10 000 kb/s
Width : 1 920 pixels
Height : 1 080 pixels
Display aspect ratio : 16:9
Frame rate mode : Constant
Frame rate : 23.976 (24000/1001) FPS
Color space : YUV
Chroma subsampling : 4:2:0
Bit depth : 8 bits
Scan type : Progressive
Bits/(Pixel*Frame) : 0.164
Stream size : 2.62 GiB (86%)
Language : English
Default : Yes
Forced : No
Color range : Limited
Color primaries : BT.709
Transfer characteristics : BT.709
Matrix coefficients : BT.709

Audio #1
ID : 2
Format : E-AC-3
Format/Info : Enhanced AC-3
Commercial name : Dolby Digital Plus
Codec ID : A_EAC3
Duration : 45 min 59 s
Bit rate mode : Constant
Bit rate : 640 kb/s
Channel(s) : 6 channels
Channel layout : L R C LFE Ls Rs
Sampling rate : 48.0 kHz
Frame rate : 31.250 FPS (1536 SPF)
Compression mode : Lossy
Stream size : 210 MiB (7%)
Title : E-AC3 5.1 @ 640kbps - MVO, Lostfilm
Language : Russian
Service kind : Complete Main
Default : Yes
Forced : No
Released date : 2019-04-30T13:05:14Z

Audio #2
ID : 3
Format : E-AC-3
Format/Info : Enhanced AC-3
Commercial name : Dolby Digital Plus
Codec ID : A_EAC3
Duration : 45 min 59 s
Bit rate mode : Constant
Bit rate : 640 kb/s
Channel(s) : 6 channels
Channel layout : L R C LFE Ls Rs
Sampling rate : 48.0 kHz
Frame rate : 31.250 FPS (1536 SPF)
Compression mode : Lossy
Stream size : 210 MiB (7%)
Title : E-AC3 5.1 @ 640kbps - Original
Language : English
Service kind : Complete Main
Default : No
Forced : No

Text #1
ID : 4
Format : UTF-8
Codec ID : S_TEXT/UTF8
Codec ID/Info : UTF-8 Plain Text
Duration : 45 min 27 s
Bit rate : 45 b/s
Count of elements : 733
Stream size : 15.3 KiB (0%)
Title : SDH
Language : English
Default : No
Forced : No

Text #2
ID : 5
Format : UTF-8
Codec ID : S_TEXT/UTF8
Codec ID/Info : UTF-8 Plain Text
Duration : 41 min 35 s
Bit rate : 42 b/s
Count of elements : 463
Stream size : 12.9 KiB (0%)
Language : English
Default : No
Forced : No

Когда раздача ведётся путём добавления новых серий, при каждом добавлении создётся новый торрент. Чтобы начать докачку новой серии, пользователям необходимо сделать следующее:
(1) остановить скачивание,
(2) удалить старый торрент у себя из клиента (старые серии удалять не надо),
(3) скачать новый торрент и запустить его у себя в клиенте вместо старого, при этом указать клиенту путь в старую папку, куда и должно происходить скачивание новых серий.
Ваш клиент при этом должен произвести хеширование (проверку) старой папки (если не производит сам - помогите ему сделать это), и будет докачивать только те серии, которых у вас ещё нет. Старые серии при этом не удаляются, а продолжают раздаваться!
Eсли вы уже удалили старые серии, то предотвратить повторную закачку старых серий можно, отжав галочку в соответсвующих местах при запуске нового торрента. По возможности, желательно не удалять старые серии как можно дольше, чтобы релизер не столько продолжал раздавать старые серии, а смог сконцентрироваться на новых.
piratbit.org



Скачать Сын через торрент http://img14.lostpic.net/2019/04/30/fdfdbbe323f742119ddac1eb933f32e9.png Скачать фильм Сын через торрент бесплантно в хорошем качестве Описание: Единственный жанр, в котором современное американское телевидение не успело создать проект, способный занять место в истории, - ... 7.7 10 6
Торрент: Зарегистрирован [2019-07-03 09:03] · скачан: 32 раз
Статус: √ проверено
Размер: 28.93 GB
Как cкачать? Как скачать Сын через торрент | qTorrent

% Раздел Тема Автор DL S | L
Зарубежные сериалы [ 28.14 GB ] Сын / The Son / Сезон: 2 / Серии: 1-10 из 10 [2019 WEB-DL 1080p] MVO [TVShows] bober100 Скачать
1 | 0


>> Регистрируемся здесь <<






Отзывы и комментарии о схеме читаем и пишем здесь: ---> Отзывы и комментарии о схеме

Новые благодарочки в телеграм довольных пользователей:
скриншот   скриншот   скриншот   скриншот   скриншот
    Дорогой пользователь! Огромная просьба, поблагодарите релизера, оцените раздачу и оставьте свои комментарий, если Вы скачали Сын через торрент бесплатно! Внесите свою лепту в развитие PiratBit!
    Комментировать посты могут только пользователи прошедшие не сложную регистрацию
    Показать сообщения:    

    Сын через торрент
    Скачать бесплатно Сын
    Сын скачать торрент
    Сын смотреть онлайн
    Cкачать фильм Сын бесплатно
    Сын скачать торрент в хорошем качестве
    Сын смотреть онлайн бесплатно в хорошем качестве


    Вы не можете начинать темы
    Вы не можете отвечать на сообщения
    Вы не можете редактировать свои сообщения
    Вы не можете удалять свои сообщения
    Вы не можете голосовать в опросах
    Вы не можете прикреплять файлы к сообщениям
    Вы можете скачивать файлы