Мега распродажа FORZA HORIZON 4 ULTIMATE+ВСЕ DLC+ОНЛАЙН всего за 499р. 349 руб. (супер цена). Внимание количество ограничено!!!

iTunes

1+1

iTunes

мы

iTunes

1

1 сезон

Чернобыль

1 сезон

Ральф против интернета

Лицензия

ПШазам

8 сезон

Игра престолов

Лицензия

30
pack

ВАЖНО

!!Акция!!

Alien_RageХит недели

RePack

Resident Evil 21

ИГРА 18+

pack

RePack

Metro:Exodus

!!Акция!!

Alien_Rage

RePack

fifa19

RePack

Assassins Creed: Odyssey

RePack

NEED FOR SPEED™ PAYBACK

3 сезон

9 сезон

Бесстыжие 9 сезон

Все сериалы

все сериалы на PB.wtf

RePack

FAR CRY 5
Ребята, катастрофически не хватает 2730р. для оплаты серверов за ИЮНЬ (всвязи с блокировками трафик упал в 3 раза), 1-2р., выручайте.
  

Кофе и капуста / Coffee & Cabbage (Джош Митчелл) [2017, комедия, WEB-DL 720p] MVO ["Синема УС"] piratbit.org

Кофе и капуста через торрент piratbit.org

Раздают: 2 [ 0 KB/s ]
Размер: 3.1 GB | Добавлен: 2 мес. 16 д. назад | Торрент скачан:59 раз
Скачать  

03-05-2019 05:00 Кофе и капуста Скачать торрент  

Кофе и капуста / Coffee & CabbageГод выпуска: 2017
Страна: США
Жанр: комедия
Продолжительность: 01:18:53
Перевод: Любительский (многоголосый) | "Синема УС"
Субтитры: отсутствуют

Режиссер: Джош Митчелл

rating

В ролях: Джена Алтшвагер, Роберт Л. Уилсон, Саманта Роуз Болдуин, Шелли Скандрани, Майлс Крэнфорд, Рода Пелл, Райан Кендрик, Филлип Е. Уокер, Бриана Рой, Том Элпер

Описание: Молодой бездомный мужчина, все еще харизматичный и притягательный, решает разорвать оковы, которые сдерживали его и не давали двигаться вперед по победному пути. Он находит в себе мужество, силы и энергию, чтобы изменить свою жизнь.

Качество: WEB-DL 720p
Формат: MKV

Видео: h.264,5 239 Кбит/с, 1280x720
Аудио#1: Русский, (AC3, 2 ch, 384 Кбит/с)
скриншот  скриншот  скриншот  

Общее
Уникальный идентификатор : 172696808028144804545119152745087127105 (0x81EC3204F5317264BF20A04ECF524E41)
Полное имя : D:\Coffee&Cabbage.2O19.P.WEB-DL.72Op.mkv
Формат : Matroska
Версия формата : Version 2
Размер файла : 3,10 Гбайт
Продолжительность : 1 ч. 18 м.
Режим общего битрейта : Переменный
Общий поток : 5624 Кбит/сек
Дата кодирования : UTC 2019-05-01 18:14:35
Программа кодирования : mkvmerge v8.3.0 ('Over the Horizon') 64bit
Библиотека кодирования : libebml v1.3.1 + libmatroska v1.4.2

Видео
Идентификатор : 1
Формат : AVC
Формат/Информация : Advanced Video Codec
Профиль формата : High@L4.1
Параметр CABAC формата : Да
Параметр RefFrames формата : 4 кадра
Идентификатор кодека : V_MPEG4/ISO/AVC
Продолжительность : 1 ч. 18 м.
Вид битрейта : Переменный
Битрейт : 5239 Кбит/сек
Максимальный битрейт : 6000 Кбит/сек
Ширина : 1280 пикселей
Высота : 720 пикселей
Соотношение сторон : 16:9
Режим частоты кадров : Постоянный
Частота кадров : 23,976 (24000/1001) кадра/сек
Стандарт вещания : Component
Цветовое пространство : YUV
Субдискретизация насыщенности : 4:2:0
Битовая глубина : 8 бит
Тип развёртки : Прогрессивная
Бит/(Пиксели*Кадры) : 0.232
Размер потока : 2,83 Гбайт (91%)
Default : Да
Forced : Нет
Цветовой диапазон : Limited
Основные цвета : BT.709
Характеристики трансфера : BT.709
Коэффициенты матрицы : BT.709

Аудио
Идентификатор : 2
Формат : AC-3
Формат/Информация : Audio Coding 3
Расширение режима : CM (complete main)
Параметр Endianness формата : Big
Идентификатор кодека : A_AC3
Продолжительность : 1 ч. 18 м.
Вид битрейта : Постоянный
Битрейт : 384 Кбит/сек
Каналы : 2 канала
Расположение каналов : Front: L R
Частота : 48,0 КГц
Частота кадров : 31,250 кадров/сек (1536 spf)
Метод сжатия : С потерями
Размер потока : 217 Мбайт (7%)
Default : Да
Forced : Нет

piratbit.org



Скачать Кофе и капуста через торрент https://d.radikal.ru/d06/1905/22/7a79d0abe771.jpg Скачать фильм Кофе и капуста через торрент бесплантно в хорошем качестве Описание: Молодой бездомный мужчина, все еще харизматичный и притягательный, решает разорвать оковы, которые сдерживали его и не давали ... 10 10 5
Торрент: Зарегистрирован [2019-05-03 05:00] · скачан: 59 раз
Статус: T временная
Размер: 3.1 GB
Как cкачать? Как скачать Кофе и капуста через торрент | qTorrent



Последний раз редактировалось: bober100 (2019-05-03 06:46), всего редактировалось 1 раз


>> Регистрируемся здесь <<






Отзывы и комментарии о схеме читаем и пишем здесь: ---> Отзывы и комментарии о схеме

Новые благодарочки в телеграм довольных пользователей:
скриншот   скриншот   скриншот   скриншот   скриншот

03-05-2019 05:59 Кофе и капуста Скачать торрент  

Описание исправьте!piratbit.org



    Дорогой пользователь! Огромная просьба, поблагодарите релизера, оцените раздачу и оставьте свои комментарий, если Вы скачали Кофе и капуста через торрент бесплатно! Внесите свою лепту в развитие PiratBit!
    Комментировать посты могут только пользователи прошедшие не сложную регистрацию
    Показать сообщения:    

    Кофе и капуста через торрент
    Скачать бесплатно Кофе и капуста
    Кофе и капуста скачать торрент
    Кофе и капуста смотреть онлайн
    Cкачать фильм Кофе и капуста бесплатно
    Кофе и капуста скачать торрент в хорошем качестве
    Кофе и капуста смотреть онлайн бесплатно в хорошем качестве


    Вы не можете начинать темы
    Вы не можете отвечать на сообщения
    Вы не можете редактировать свои сообщения
    Вы не можете удалять свои сообщения
    Вы не можете голосовать в опросах
    Вы не можете прикреплять файлы к сообщениям
    Вы можете скачивать файлы