Наша группа ВК в очередной раз забанена мы уходим в Телеграм, присоединяйтесь!!!

Лицензия

30

iTunes

Как приручить дракона 3

iTunes

1

1 сезон

Чернобыль

iTunes

Снегоуборщик

iTunes

Закатать в асфальт

8 сезон

Игра престолов

iTunes

Ральф против интернета Хит недели

ИГРА 18+

pack

ВАЖНО

!!Акция!!

Alien_RageХит недели

RePack

Resident Evil 21
pack

RePack

Metro:Exodus

!!Акция!!

Alien_Rage

RePack

fifa19

RePack

Assassins Creed: Odyssey

RePack

NEED FOR SPEED™ PAYBACK

3 сезон

9 сезон

Бесстыжие 9 сезон

Все сериалы

все сериалы на PB.wtf

RePack

FAR CRY 5
Ребята, катастрофически не хватает 2730р. для оплаты серверов за АПРЕЛЬ (всвязи с блокировками трафик упал в 3 раза), 1-2р., выручайте.
  

Должны умереть 5ятеро / 5ive Must Die (Джон Винсент) [2017, Ужасы, WEB-DL 720p] MVO ["Синема УС"] piratbit.org

Должны умереть 5ятеро через торрент piratbit.org

Раздают: 1 [ 0 KB/s ] Качают: 1 [ 14 KB/s ]
Размер: 3.01 GB | Добавлен: 17 д. назад | Торрент скачан:26 раз
Скачать  

03-05-2019 05:26 Должны умереть 5ятеро Скачать торрент  

Должны умереть 5ятеро / 5ive Must Die Год выпуска: 2017
Страна: США
Жанр: Ужасы
Продолжительность: 01:18:45
Перевод: Любительский (многоголосый) | "Синема УС"
Субтитры: отсутствуют

Режиссер: Джон Винсент

rating

В ролях: Линкольн Джиллетт, Дженнифер Якубовски, Кеф Ли

Описание: Группа студентов во главе с чудаковатым профессором отправляется в заброшенную психиатрическую клинику. Хоть и ходят легенды, что она проклята и в ней живут призраки, но это не умеряет их пыл. Что же может пойти не так?

Качество: WEB-DL 720p
Формат: MKV

Видео: h.264 5 094 Кбит/с, 1220x720
Аудио#1: Русский, (AC3, 2 ch, 384 Кбит/с)
скриншот  скриншот  скриншот  

Общее
Уникальный идентификатор : 177964223785018892962327033254220728994 (0x85E2A9AAC0880673A7D495D048D90AA2)
Полное имя : D:\5iveMustDie.2017.P.WEB-DL.72Op.mkv
Формат : Matroska
Версия формата : Version 2
Размер файла : 3,01 Гбайт
Продолжительность : 1 ч. 18 м.
Режим общего битрейта : Переменный
Общий поток : 5480 Кбит/сек
Дата кодирования : UTC 2019-05-01 18:17:13
Программа кодирования : mkvmerge v8.3.0 ('Over the Horizon') 64bit
Библиотека кодирования : libebml v1.3.1 + libmatroska v1.4.2

Видео
Идентификатор : 1
Формат : AVC
Формат/Информация : Advanced Video Codec
Профиль формата : High@L4.1
Параметр CABAC формата : Да
Параметр RefFrames формата : 4 кадра
Идентификатор кодека : V_MPEG4/ISO/AVC
Продолжительность : 1 ч. 18 м.
Вид битрейта : Переменный
Битрейт : 5094 Кбит/сек
Максимальный битрейт : 6000 Кбит/сек
Ширина : 1220 пикселей
Высота : 720 пикселей
Соотношение сторон : 5:3
Режим частоты кадров : Постоянный
Частота кадров : 23,976 (24000/1001) кадра/сек
Стандарт вещания : Component
Цветовое пространство : YUV
Субдискретизация насыщенности : 4:2:0
Битовая глубина : 8 бит
Тип развёртки : Прогрессивная
Бит/(Пиксели*Кадры) : 0.237
Размер потока : 2,74 Гбайт (91%)
Default : Да
Forced : Нет
Цветовой диапазон : Limited
Основные цвета : BT.709
Характеристики трансфера : BT.709
Коэффициенты матрицы : BT.709

Аудио
Идентификатор : 2
Формат : AC-3
Формат/Информация : Audio Coding 3
Расширение режима : CM (complete main)
Параметр Endianness формата : Big
Идентификатор кодека : A_AC3
Продолжительность : 1 ч. 18 м.
Вид битрейта : Постоянный
Битрейт : 384 Кбит/сек
Каналы : 2 канала
Расположение каналов : Front: L R
Частота : 48,0 КГц
Частота кадров : 31,250 кадров/сек (1536 spf)
Метод сжатия : С потерями
Размер потока : 216 Мбайт (7%)
Default : Да
Forced : Нет

piratbit.org



Скачать Должны умереть 5ятеро через торрент https://a.radikal.ru/a04/1905/6d/ea53ff0e3263.jpg Скачать фильм Должны умереть 5ятеро через торрент бесплантно в хорошем качестве Описание: Группа студентов во главе с чудаковатым профессором отправляется в заброшенную психиатрическую клинику. Хоть и ходят легенды, что ... 10 10 3
Торрент: Зарегистрирован [2019-05-03 05:26] · скачан: 26 раз
Статус: T временная
Размер: 3.01 GB
Как cкачать? Как скачать Должны умереть 5ятеро через торрент | qTorrent

% Раздел Тема Автор DL S | L
T Фильмы (мультфильмы) cо спонсором показа (Новинки AVI/MKV) [ 1.37 GB ] Должны умереть 5ятеро / 5ive Must Die [2017 WEB-DLRip] MVO ["Синема УС"] bober100 Скачать
4 | 0


>> Регистрируемся здесь <<






Отзывы и комментарии о схеме читаем и пишем здесь: ---> Отзывы и комментарии о схеме

Новые благодарочки в телеграм довольных пользователей:
скриншот   скриншот   скриншот   скриншот   скриншот
    Дорогой пользователь! Огромная просьба, поблагодарите релизера, оцените раздачу и оставьте свои комментарий, если Вы скачали Должны умереть 5ятеро через торрент бесплатно! Внесите свою лепту в развитие PiratBit!
    Комментировать посты могут только пользователи прошедшие не сложную регистрацию
    Показать сообщения:    

    Должны умереть 5ятеро через торрент
    Скачать бесплатно Должны умереть 5ятеро
    Должны умереть 5ятеро скачать торрент
    Должны умереть 5ятеро смотреть онлайн
    Cкачать фильм Должны умереть 5ятеро бесплатно
    Должны умереть 5ятеро скачать торрент в хорошем качестве
    Должны умереть 5ятеро смотреть онлайн бесплатно в хорошем качестве


    Вы не можете начинать темы
    Вы не можете отвечать на сообщения
    Вы не можете редактировать свои сообщения
    Вы не можете удалять свои сообщения
    Вы не можете голосовать в опросах
    Вы не можете прикреплять файлы к сообщениям
    Вы можете скачивать файлы