Ссылка на приватное зеркало всего за 1$. Внимание количество ограничено!!!

iTunes

1+1

iTunes

мы

WEB-DL

1

iTunes

Чернобыль

iTunes

Ральф против интернета

Лицензия

ПШазам

Лицензия

Оно 2

Лицензия

30
pack

Вам бонус

ВАЖНО

!!Акция!!

Alien_RageХит недели

RePack

Resident Evil 21

ИГРА 18+

pack

RePack

jed

!!Акция!!

Alien_Rage

RePack

fifa19

RePack

Assassins Creed: Odyssey

RePack

NEED FOR SPEED™ PAYBACK

3 сезон

9 сезон

Бесстыжие 9 сезон

Все сериалы

все сериалы на PB.wtf

RePack

FAR CRY 5
Ребята, катастрофически не хватает 1900р. для оплаты серверов за Октябрь (всвязи с блокировками трафик упал в 3 раза), 1-2р., выручайте.
  

Так близко... / Close But No Cigar (Том Хатт, Уилл Хатт) [2017, Драма, комедия, криминал, WEB-DL 720p] MVO ["Синема УС"] piratbit.org

Так близко... через торрент piratbit.org

Размер: 3.94 GB | Добавлен: 7 мес. назад | Торрент скачан:35 раз
Скачать  

03-05-2019 07:09 Так близко... Скачать торрент  

Так близко... / Close But No CigarГод выпуска: 2017
Страна: Великобритания
Жанр: Драма, комедия, криминал
Продолжительность: 01:38:36
Перевод: Любительский (многоголосый) | "Синема УС"
Субтитры: отсутствуют

Режиссер: Том Хатт, Уилл Хатт

rating

В ролях:

Феликс Тейлор, Сэм Уилкинсон, Тим Чарльз, Терри Скотчмер, Уилл Вульф Хоган, Тим Скелтон, Пол Баверсток

Описание:

Оказавшись замешанными в аферу своего дядюшки, Скотт и его напарник Джоэл, не отличающийся острым умом, попадают в водоворот событий, где на их пути встают коллекторы, похитители собак и просто психопаты.

Качество: WEB-DL 720p
Формат: MKV

Видео: h.264, 5 334 Кбит/с, 1280x528
Аудио: Русский, (AC3, 2 ch, 384 Кбит/с)
скриншот  скриншот  скриншот  

Общее
Уникальный идентификатор : 226921710422519030177707384116972651847 (0xAAB7881E5F100E4CA27576716DCC8547)
Полное имя : D:\CloseButNoCigar.2O19.P.WEB-DL.72Op.mkv
Формат : Matroska
Версия формата : Version 2
Размер файла : 3,94 Гбайт
Продолжительность : 1 ч. 38 м.
Режим общего битрейта : Переменный
Общий поток : 5719 Кбит/сек
Дата кодирования : UTC 2019-05-01 16:41:43
Программа кодирования : mkvmerge v8.3.0 ('Over the Horizon') 64bit
Библиотека кодирования : libebml v1.3.1 + libmatroska v1.4.2

Видео
Идентификатор : 1
Формат : AVC
Формат/Информация : Advanced Video Codec
Профиль формата : High@L4.1
Параметр CABAC формата : Да
Параметр RefFrames формата : 4 кадра
Идентификатор кодека : V_MPEG4/ISO/AVC
Продолжительность : 1 ч. 38 м.
Вид битрейта : Переменный
Битрейт : 5334 Кбит/сек
Максимальный битрейт : 6000 Кбит/сек
Ширина : 1280 пикселей
Высота : 528 пикселей
Соотношение сторон : 2,40:1
Режим частоты кадров : Постоянный
Частота кадров : 23,976 (24000/1001) кадра/сек
Стандарт вещания : Component
Цветовое пространство : YUV
Субдискретизация насыщенности : 4:2:0
Битовая глубина : 8 бит
Тип развёртки : Прогрессивная
Бит/(Пиксели*Кадры) : 0.322
Размер потока : 3,60 Гбайт (91%)
Default : Да
Forced : Нет
Цветовой диапазон : Limited
Основные цвета : BT.709
Характеристики трансфера : BT.709
Коэффициенты матрицы : BT.709

Аудио
Идентификатор : 2
Формат : AC-3
Формат/Информация : Audio Coding 3
Расширение режима : CM (complete main)
Параметр Endianness формата : Big
Идентификатор кодека : A_AC3
Продолжительность : 1 ч. 38 м.
Вид битрейта : Постоянный
Битрейт : 384 Кбит/сек
Каналы : 2 канала
Расположение каналов : Front: L R
Частота : 48,0 КГц
Частота кадров : 31,250 кадров/сек (1536 spf)
Метод сжатия : С потерями
Размер потока : 271 Мбайт (7%)
Default : Да
Forced : Нет

piratbit.org



Скачать Так близко... через торрент https://a.radikal.ru/a38/1905/52/7dd85eca3916.jpg Скачать фильм Так близко... через торрент бесплантно в хорошем качестве Описание: Оказавшись замешанными в аферу своего дядюшки, Скотт и его напарник Джоэл, не отличающийся острым умом, попадают в водоворот ... 7.8 10 4
Торрент: Зарегистрирован [2019-05-03 07:09] · скачан: 35 раз
Статус: T временная
Размер: 3.94 GB
Как cкачать? Как скачать Так близко... через торрент | qTorrent

% Раздел Тема Автор DL S | L
T Фильмы (мультфильмы) cо спонсором показа (Новинки AVI/MKV) [ 1.37 GB ] Так близко... / Close But No Cigar [2017 WEB-DLRip] MVO ["Синема УС"] bober100 Скачать
2 | 0

28-11-2019 20:33  

Отключить всю рекламу на сайте


    Дорогой пользователь! Огромная просьба, поблагодарите релизера, оцените раздачу и оставьте свои комментарий, если Вы скачали Так близко... через торрент бесплатно! Внесите свою лепту в развитие PiratBit!
    Комментировать посты могут только пользователи прошедшие не сложную регистрацию
    Показать сообщения:    

    Так близко... через торрент
    Скачать бесплатно Так близко...
    Так близко... скачать торрент
    Так близко... смотреть онлайн
    Cкачать фильм Так близко... бесплатно
    Так близко... скачать торрент в хорошем качестве
    Так близко... смотреть онлайн бесплатно в хорошем качестве


    Вы не можете начинать темы
    Вы не можете отвечать на сообщения
    Вы не можете редактировать свои сообщения
    Вы не можете удалять свои сообщения
    Вы не можете голосовать в опросах
    Вы не можете прикреплять файлы к сообщениям
    Вы можете скачивать файлы