Достать ножи: Стеклянная луковица

MVO

Добыча

Дубляж

Уэнсдэй

1 сезон

Тор

Дубляж

13 клиническая

1 сезон

Жестокая ночь

MVO

Одни из нас

1 сезон

Deluxe

pack

Рекомендуем

30

Пиратка

ВАЖНО

ВАЖНО

Ghostwire

Пиратка

jed

RePack

nioh2

RePack

RDR2

RePack

NEED FOR SPEED™ PAYBACK

RePack

скачать торрент

Кинопоиск HD

Острые козырьки 6 сезон

6 сезон

FAR CRY 6

RePack

скачать торрент

Лицензия

скачать торрент

MVO

1

1 сезон

скачать торрент

1 сезон

скачать торрент

Лицензия

  

Аквамен / Aquaman (Джеймс Ван) [2018, фантастика, фэнтези, боевик, UHD WEB-DLRip 2160p] [SDR] [IMAX Edition] Дубляж (rus, ukr) + MVO [HDRezka]

Аквамен через торрент piratbit.org

Размер: 15.41 GB | Добавлен: 3 года 10 мес. назад | Торрент скачан:598 раз
Смотреть онлайн | Скачать | Поддержите нас   

06-03-2019 13:28 Аквамен Скачать торрент  

Аквамен / Aquaman««Океан зовёт»»

Год выпуска: 2018
Страна: Австралия, США
Жанр: фантастика, фэнтези, боевик, приключения
Продолжительность: 02:23:21
Перевод: Дублированный, профессиональный многоголосый
Субтитры: Русские (Forced, full), украинские (Forced), английские
Режиссер: Джеймс Ван
В ролях:

Джейсон Момоа (Arthur), Эмбер Хёрд (Mera), Уиллем Дефо (Vulko), Патрик Уилсон (King Orm), Николь Кидман (Atlanna), Дольф Лундгрен (King Nereus), Яхья Абдул-Матин II (Manta), Темуэра Моррисон (Tom Curry), Луди Линь (Captain Murk), Майкл Бич (Jesse (Manta's Father)), Рэндолл Парк (Dr. Stephen Shin), Грэм МакТавиш (King Atlan)
Описание:
Действие фильма разворачивается в необъятном и захватывающем подводном мире семи морей, а сюжет знакомит зрителей с историей происхождения получеловека-полуатланта Артура Карри и ключевыми событиями его жизни - теми, что заставят его не только столкнуться с самим собой, но и выяснить, достоин ли он быть тем, кем ему суждено... царем!
Рейтинг:

MPAA: PG-13 - Детям до 13 лет просмотр не желателен
Качество: UHD WEB-DLRip 2160p | SDR
Формат: MKV
Видео: HEVC, 14100 Кбит/с, 3840х2160, 23.976 кадр/с, 10 бит
Аудио: 48 kHz, AC3, 5.1, 384 Kbps | Дублированный_iTunes | RUS |
Аудио: 48 kHz, AC3, 2.0, 192 Kbps | Профессиональный многоголосый_HDRezka Studio | RUS |
Аудио: 48 kHz, AC3, 2.0, 160 Kbps | Дублированный_iTunes | UKR |
Аудио: 48 kHz, E-AC-3+Atmos, 5.1, 576 Kbps | Оригинал | ENG |
Общее
Уникальный идентификатор : 202564330806615300005404780722392796424 (0x98647895D97A2DAAA1FE1A8E019A0D08)
Полное имя : D:\Мои раздачи\Передел\Aquaman.2018.IMAX.2160p.WEB-DLRip.HEVC.x265.SDR.10bit.Master5 (1).mkv
Формат : Matroska
Версия формата : Version 4 / Version 2
Размер файла : 15,4 Гбайт
Продолжительность : 2 ч. 23 м.
Общий поток : 15,4 Мбит/сек
Название фильма : Aquaman.2018.IMAX.2160p.WEB-DLRip.HEVC.x265.SDR.10bit.Master5
Дата кодирования : UTC 2019-03-06 06:41:22
Программа кодирования : mkvmerge v7.9.0 ('Birds') 64bit
Библиотека кодирования : libebml v1.3.1 + libmatroska v1.4.2

Видео
Идентификатор : 1
Формат : HEVC
Формат/Информация : High Efficiency Video Coding
Профиль формата : Main 10@L5@Main
Идентификатор кодека : V_MPEGH/ISO/HEVC
Продолжительность : 2 ч. 23 м.
Битрейт : 14,1 Мбит/сек
Ширина : 3840 пикселей
Высота : 2160 пикселей
Соотношение сторон : 16:9
Режим частоты кадров : Постоянный
Частота кадров : 23,976 (24000/1001) кадра/сек
Цветовое пространство : YUV
Субдискретизация насыщенности : 4:2:0
Битовая глубина : 10 бит
Бит/(Пиксели*Кадры) : 0.071
Размер потока : 14,1 Гбайт (91%)
Заголовок : Aquaman.2018.IMAX.2160p.WEB-DLRip.HEVC.x265.SDR.10bit.Master5
Язык : English
Default : Да
Forced : Нет

Аудио #1
Идентификатор : 2
Формат : AC-3
Формат/Информация : Audio Coding 3
Идентификатор кодека : A_AC3
Продолжительность : 2 ч. 23 м.
Вид битрейта : Постоянный
Битрейт : 384 Кбит/сек
Каналы : 6 каналов
Расположение каналов : Front: L C R, Side: L R, LFE
Частота : 48,0 КГц
Частота кадров : 31,250 кадров/сек (1536 SPF)
Битовая глубина : 16 бит
Метод сжатия : С потерями
Размер потока : 394 Мбайт (2%)
Заголовок : iTunes
Язык : Russian
ServiceKind/String : Complete Main
Default : Да
Forced : Да

Аудио #2
Идентификатор : 3
Формат : AC-3
Формат/Информация : Audio Coding 3
Идентификатор кодека : A_AC3
Продолжительность : 2 ч. 23 м.
Вид битрейта : Постоянный
Битрейт : 192 Кбит/сек
Каналы : 2 канала
Расположение каналов : Front: L R
Частота : 48,0 КГц
Частота кадров : 31,250 кадров/сек (1536 SPF)
Битовая глубина : 16 бит
Метод сжатия : С потерями
Размер потока : 197 Мбайт (1%)
Заголовок : MVO HDRezka
Язык : Russian
ServiceKind/String : Complete Main
Default : Нет
Forced : Нет

Аудио #3
Идентификатор : 4
Формат : AC-3
Формат/Информация : Audio Coding 3
Идентификатор кодека : A_AC3
Продолжительность : 2 ч. 23 м.
Вид битрейта : Постоянный
Битрейт : 160 Кбит/сек
Каналы : 2 канала
Расположение каналов : Front: L R
Частота : 48,0 КГц
Частота кадров : 31,250 кадров/сек (1536 SPF)
Битовая глубина : 16 бит
Метод сжатия : С потерями
Размер потока : 164 Мбайт (1%)
Заголовок : iTunes
Язык : Ukrainian
ServiceKind/String : Complete Main
Default : Нет
Forced : Нет

Аудио #4
Идентификатор : 5
Формат : E-AC-3
Формат/Информация : Enhanced Audio Coding 3
Профиль формата : E-AC-3+Atmos / E-AC-3
Идентификатор кодека : A_EAC3
Продолжительность : 2 ч. 23 м.
Вид битрейта : Постоянный
Битрейт : 576 Кбит/сек
Каналы : 15 objects / 6 каналов
Расположение каналов : 15 objects / Front: L C R, Side: L R, LFE
Частота : 48,0 КГц
Частота кадров : 187,500 кадров/сек (256 SPF)
Метод сжатия : С потерями
Размер потока : 591 Мбайт (4%)
Заголовок : Original
Язык : English
ServiceKind/String : Complete Main
Default : Нет
Forced : Нет

Текст #1
Идентификатор : 6
Формат : UTF-8
Идентификатор кодека : S_TEXT/UTF8
Идентификатор кодека/Информация : UTF-8 Plain Text
Продолжительность : 2 ч. 14 м.
Битрейт : 1 бит/сек
ElementCount : 27
Размер потока : 1,23 Кбайт (0%)
Заголовок : Forced
Язык : Russian
Default : Да
Forced : Да

Текст #2
Идентификатор : 7
Формат : UTF-8
Идентификатор кодека : S_TEXT/UTF8
Идентификатор кодека/Информация : UTF-8 Plain Text
Продолжительность : 2 ч. 22 м.
Битрейт : 55 бит/сек
ElementCount : 1119
Размер потока : 58,0 Кбайт (0%)
Заголовок : Full
Язык : Russian
Default : Нет
Forced : Нет

Текст #3
Идентификатор : 8
Формат : UTF-8
Идентификатор кодека : S_TEXT/UTF8
Идентификатор кодека/Информация : UTF-8 Plain Text
Продолжительность : 2 ч. 22 м.
Битрейт : 1 бит/сек
ElementCount : 32
Размер потока : 1,54 Кбайт (0%)
Заголовок : Forced
Язык : Ukrainian
Default : Нет
Forced : Нет

Текст #4
Идентификатор : 9
Формат : UTF-8
Идентификатор кодека : S_TEXT/UTF8
Идентификатор кодека/Информация : UTF-8 Plain Text
Продолжительность : 2 ч. 14 м.
Битрейт : 38 бит/сек
ElementCount : 1132
Размер потока : 37,5 Кбайт (0%)
Язык : English
Default : Нет
Forced : Нет



Скачать Аквамен через торрент https://c.radikal.ru/c07/1903/70/d61884c1ae14.jpg Скачать, смотреть онлайн Аквамен бесплантно в хорошем качестве Описание: Действие фильма разворачивается в необъятном и захватывающем подводном мире семи морей, а сюжет знакомит зрителей с историей ... 8.3 10 16
Торрент: Зарегистрирован [2019-03-06 13:28] · скачан: 598 раз
Статус: √ проверено
Размер: 15.41 GB
Как cкачать? Как скачать Аквамен через торрент | UTorrent

% Раздел Тема Автор DL S | L
Фильмы (WEB-DL 720p, 1080p) [ 6.43 GB ] Аквамен / Aquaman | iTunes | 1080p bober100 Скачать
1 | 0
3D Фильмы [ 16.94 GB ] Аквамен в 3Д / Aquaman 3D | HDRezka Studio | 1080p sheker187 Скачать
1 | 0
Фильмы (WEB-DL 720p, 1080p) [ 6.25 GB ] Аквамен / Aquaman | Лицензия | 1080p bober100 Скачать
1 | 0
Фильмы (Blu-ray, BD-Remux, HDDVD) [ 27.2 GB ] Аквамен / Aquaman | Лицензия | BD Remux 1080p bober100 Скачать
1 | 0
Фильмы (Blu-ray, BD-Remux, HDDVD) [ 22.69 GB ] Аквамен / Aquaman | HDRezka Studio | 1080p sheker187 Скачать
1 | 0
Ultra HD (UHD: 2K, 4K, 8K) [ 37.97 GB ] Аквамен / Aquaman | HDRezka Studio | 2160p sheker187 Скачать
1 | 0
Ultra HD (UHD: 2K, 4K, 8K) [ 26.49 GB ] Аквамен / Aquaman | HDRezka Studio | 2160p sheker187 Скачать
1 | 0

28-11-2019 20:33  


Отключить вcю реклaмy на сайте, в т.ч. и в плеере онлайн просмотра!

06-03-2019 19:19 Аквамен Скачать торрент  

SDR это 2К или что-то другое?



07-03-2019 22:09 Аквамен Скачать торрент  

NIKLAINER, Похоже, хакерам удалось получить доступ к недоступной до недавнего времени цифровой библиотеки 4K-фильмов Apple.
Рипы фильмов добывают чаще всего из следующих источников: iTunes, Netflix и Amazon Video, благодаря им относительно качественные копии появляются в сети до их релиза на домашних носителях. Однако недавно в сети была обнаружена пиратская копия «Авамена» в UltraHD, причем все указывает на то, что ее «родина» именно что iTunes. Фильм закодирован в формат HEVC, который использует Apple, кроме того, у него есть дорожка Atmos, HDR10 и расширенный формат изображения в сценах для IMAX — и все это доступно пользователям в том же iTunes.

На цифровое происхождение картины указывает и формат WEB-DL (у рипов с Blu-Ray ставят BD-Rip).

Сообщается, что фильмы из библиотеки Apple 4K ранее были недоступны для взломщиков из-за того, что открыть их можно было исключительно на закрытой операционной системе tvOS на телевизионной приставке Apple TV. Судя по всему, «Аквамена» удалось скачать как раз при помощи данной приставки. И в ближайшем будущем следует ожидать появления других картин в 4K, во всяком случае, пока Apple не закроет уязвимость в обновлении.

Также стало известно о появлении в сети 4K-версии мультфильма «Человек-паук: Через вселенные», которая по всем признакам также была взята из iTunes.



08-03-2019 14:44 Аквамен Скачать торрент  

Даже красивая "картинка" не спасает этот шлак!

Релизёру - спасибо!



    Дорогой пользователь! Огромная просьба, поблагодарите релизера, оцените раздачу и оставьте свои комментарий, если Вы скачали Аквамен через торрент бесплатно!!
    Комментировать посты могут только пользователи прошедшие не сложную регистрацию
    Показать сообщения:    


    Аквамен через торрент
    Скачать бесплатно Аквамен
    Аквамен скачать торрент
    Аквамен смотреть онлайн
    Cкачать фильм Аквамен бесплатно
    Аквамен скачать торрент в хорошем качестве
    Аквамен смотреть онлайн бесплатно в хорошем качестве
    Вы не можете начинать темы
    Вы не можете отвечать на сообщения
    Вы не можете редактировать свои сообщения
    Вы не можете удалять свои сообщения
    Вы не можете голосовать в опросах
    Вы не можете прикреплять файлы к сообщениям
    Вы можете скачивать файлы
    Аквамен / Aquaman [2018, фантастика, фэнтези, боевик, UHD WEB-DLRip 2160p] [SDR] [IMAX Edition] Дубляж + MVO [HDRezka] смотреть онлайн, скачать торрент picoco.icu