MEGA NEWS Получи личный уникальный адрес сайта и защити себя от блокировок. Внимание количество ограничено!!!

iTunes

1+1

iTunes

мы

iTunes

1

iTunes

Чернобыль

iTunes

Ральф против интернета

Лицензия

ПШазам

Лицензия

Игра престолов

Лицензия

30
pack

ВАЖНО

!!Акция!!

Alien_RageХит недели

RePack

Resident Evil 21

ИГРА 18+

pack

RePack

Metro:Exodus

!!Акция!!

Alien_Rage

RePack

fifa19

RePack

Assassins Creed: Odyssey

RePack

NEED FOR SPEED™ PAYBACK

3 сезон

9 сезон

Бесстыжие 9 сезон

Все сериалы

все сериалы на PB.wtf

RePack

FAR CRY 5
Ребята, катастрофически не хватает 1900р. для оплаты серверов за АВГУСТ (всвязи с блокировками трафик упал в 3 раза), 1-2р., выручайте.
  

Лицо в толпе / A Face in the Crowd (Элиа Казан) [1957, драма, музыка, BDRip 1080p by msltel] DVO piratbit.org

Лицо в толпе через торрент piratbit.org

Размер: 15.06 GB | Добавлен: 5 мес. 8 д. назад | Торрент скачан:1 раз
Скачать  

07-05-2019 04:29 Лицо в толпе Скачать торрент  

Название: Лицо в толпе
Оригинальное название: A Face in the Crowd
Год выпуска: 1957
Страна: США
Жанр: драма, музыка
Продолжительность: 02:06:12
Перевод: закадровый двухголосый

Режиссер: Элиа Казан
В ролях: Энди Гриффит, Патриция Нил, Энтони Франчоза, Уолтер Мэттау, Ли Ремик, Перси Уорам, Пол МакГрат, Род Брэсфилд, Маршалл Нейлан, Александр Керклэнд

О фильме: Марша Джеффрис, радиоагент по поиску талантов, обнаруживает в тюрьме Ларри Роудса по прозвищу Одиночка, философствующего бродягу и певца в стиле кантри-энд-вестерн. Она организовывает его освобождение и приглашает выступить на радио. Результат неожиданный: выступления Роудса производят сенсацию не только на радио, но и на телевидении, и вскоре он становится самым могущественным и влиятельным артистом в эфире. Близкому же окружению Роудс раскрывается как честолюбивый, жадный до власти манипулятор... Фильм по сценарию Бадда Шульберга, основанному на его рассказе «Твой арканзасский странник». (Википедия)



Качество: BDRip 1080p
Формат: MKV
Видео: MPEG-4 AVC, 16.7 Mбит/с, 1920x1036
Аудио 1: русский, AC3, 192 kbps, 2 ch, 48 kHz [закадровый двухголосый]
Аудио 2: английский, AC3, 192 kbps, 1 ch, 48 kHz [оригинал]
Субтитры 1: русские
Субтитры 2: английские
Главы/чаптеры
Общее
Уникальный идентификатор : 248742252440370331750571759011547174682 (0xBB2203E6D4455FC0A814FE2A5E3DD71A)
Полное имя : D:\Video\Лицо в толпе.1957.BDRip 1080p by msltel.mkv
Формат : Matroska
Версия формата : Version 4
Размер файла : 15,1 Гбайт
Продолжительность : 2 ч. 6 м.
Общий поток : 17,1 Мбит/сек
Название фильма : Rip by msltel
Дата кодирования : UTC 2019-05-06 10:18:01
Программа кодирования : mkvmerge v8.2.0 ('World of Adventure') 64bit
Библиотека кодирования : libebml v1.3.1 + libmatroska v1.4.2

Видео
Идентификатор : 1
Формат : AVC
Формат/Информация : Advanced Video Codec
Профиль формата : High@L4.1
Настройки формата : CABAC / 4 Ref Frames
Параметр CABAC формата : Да
Параметр RefFrames формата : 4 кадра
Идентификатор кодека : V_MPEG4/ISO/AVC
Продолжительность : 2 ч. 6 м.
Битрейт : 16,7 Мбит/сек
Ширина : 1920 пикселей
Высота : 1036 пикселей
Соотношение сторон : 1,85:1
Режим частоты кадров : Постоянный
Частота кадров : 23,976 (24000/1001) кадра/сек
Цветовое пространство : YUV
Субдискретизация насыщенности : 4:2:0
Битовая глубина : 8 бит
Тип развёртки : Прогрессивная
Бит/(Пиксели*Кадры) : 0.350
Размер потока : 14,7 Гбайт (98%)
Библиотека кодирования : x264 core 157 r2935 545de2f
Настройки программы : cabac=1 / ref=4 / deblock=1:-2:-2 / analyse=0x3:0x113 / me=umh / subme=11 / psy=1 / psy_rd=1.00:0.15 / mixed_ref=1 / me_range=32 / chroma_me=1 / trellis=2 / 8x8dct=1 / cqm=0 / deadzone=21,11 / fast_pskip=0 / chroma_qp_offset=-3 / threads=6 / lookahead_threads=1 / sliced_threads=0 / nr=0 / decimate=1 / interlaced=0 / bluray_compat=0 / constrained_intra=0 / bframes=13 / b_pyramid=2 / b_adapt=2 / b_bias=0 / direct=1 / weightb=1 / open_gop=0 / weightp=2 / keyint=230 / keyint_min=23 / scenecut=40 / intra_refresh=0 / rc_lookahead=40 / rc=crf / mbtree=1 / crf=21.0 / qcomp=0.60 / qpmin=0 / qpmax=69 / qpstep=4 / vbv_maxrate=50000 / vbv_bufsize=62500 / crf_max=0.0 / nal_hrd=none / filler=0 / ip_ratio=1.40 / aq=1:1.00
Язык : English
Default : Да
Forced : Нет

Аудио #1
Идентификатор : 2
Формат : AC-3
Формат/Информация : Audio Coding 3
Коммерческое название : Dolby Digital
Идентификатор кодека : A_AC3
Продолжительность : 2 ч. 6 м.
Вид битрейта : Постоянный
Битрейт : 192 Кбит/сек
Каналы : 2 канала
ChannelLayout : L R
Частота : 48,0 КГц
Частота кадров : 31,250 кадров/сек (1536 SPF)
Битовая глубина : 16 бит
Метод сжатия : С потерями
Размер потока : 173 Мбайт (1%)
Заголовок : DVO
Язык : Russian
ServiceKind/String : Complete Main
Default : Да
Forced : Нет

Аудио #2
Идентификатор : 3
Формат : AC-3
Формат/Информация : Audio Coding 3
Коммерческое название : Dolby Digital
Идентификатор кодека : A_AC3
Продолжительность : 2 ч. 6 м.
Вид битрейта : Постоянный
Битрейт : 192 Кбит/сек
Каналы : 1 канал
ChannelLayout : C
Частота : 48,0 КГц
Частота кадров : 31,250 кадров/сек (1536 SPF)
Битовая глубина : 16 бит
Метод сжатия : С потерями
Размер потока : 173 Мбайт (1%)
Заголовок : original
Язык : English
ServiceKind/String : Complete Main
Default : Нет
Forced : Нет

Текст #1
Идентификатор : 4
Формат : UTF-8
Идентификатор кодека : S_TEXT/UTF8
Идентификатор кодека/Информация : UTF-8 Plain Text
Продолжительность : 14 м. 51 с.
Битрейт : 26 бит/сек
ElementCount : 39
Размер потока : 2,91 Кбайт (0%)
Заголовок : русские
Язык : Russian
Default : Нет
Forced : Нет

Текст #2
Идентификатор : 5
Формат : UTF-8
Идентификатор кодека : S_TEXT/UTF8
Идентификатор кодека/Информация : UTF-8 Plain Text
Продолжительность : 2 ч. 5 м.
Битрейт : 88 бит/сек
ElementCount : 2049
Размер потока : 81,7 Кбайт (0%)
Заголовок : английские
Язык : Russian
Default : Нет
Forced : Нет

Меню
00:00:00.000 : en:01
00:01:39.516 : en:02
00:10:02.560 : en:03
00:14:11.476 : en:04
00:16:51.510 : en:05
00:19:27.208 : en:06
00:21:27.661 : en:07
00:23:29.658 : en:08
00:26:51.360 : en:09
00:32:23.191 : en:10
00:35:03.977 : en:11
00:36:04.037 : en:12
00:37:47.765 : en:13
00:40:01.608 : en:14
00:42:23.750 : en:15
00:44:17.530 : en:16
00:48:52.972 : en:17
00:51:18.075 : en:18
00:53:55.315 : en:19
00:56:15.414 : en:20
01:00:30.252 : en:21
01:04:20.899 : en:22
01:06:33.907 : en:23
01:07:52.193 : en:24
01:15:20.433 : en:25
01:17:22.847 : en:26
01:19:35.104 : en:27
01:23:10.068 : en:28
01:26:26.056 : en:29
01:33:25.475 : en:30
01:40:16.385 : en:31
01:47:44.333 : en:32
01:55:36.930 : en:33
01:58:54.711 : en:34
piratbit.org



Скачать Лицо в толпе через торрент https://d.radikal.ru/d15/1905/e2/fec7c3b2e2a3.jpg Скачать фильм Лицо в толпе через торрент бесплантно в хорошем качестве О фильме: Марша Джеффрис, радиоагент по поиску талантов, обнаруживает в тюрьме Ларри Роудса по прозвищу Одиночка, философствующего бродягу ... 5 10 1
Info! Золотая раздача, скачанное не засчитывается.
Торрент: Зарегистрирован [2019-05-07 04:29] · скачан: 1 раз
Статус: √ проверено
Размер: 15.06 GB
Как cкачать? Как скачать Лицо в толпе через торрент | qTorrent

% Раздел Тема Автор DL S | L
Фильмы [HD 720p, 1080p] (Звук Cam, VO, DVO) [ 5.36 GB ] Лицо в толпе / A Face in the Crowd [1957 музыка BDRip 720p by msltel] DVO msltel Скачать
1 | 0


>> Регистрируемся здесь <<






Отзывы и комментарии о схеме читаем и пишем здесь: ---> Отзывы и комментарии о схеме

Новые благодарочки в телеграм довольных пользователей:
скриншот   скриншот   скриншот   скриншот   скриншот
    Дорогой пользователь! Огромная просьба, поблагодарите релизера, оцените раздачу и оставьте свои комментарий, если Вы скачали Лицо в толпе через торрент бесплатно! Внесите свою лепту в развитие PiratBit!
    Комментировать посты могут только пользователи прошедшие не сложную регистрацию
    Показать сообщения:    

    Лицо в толпе через торрент
    Скачать бесплатно Лицо в толпе
    Лицо в толпе скачать торрент
    Лицо в толпе смотреть онлайн
    Cкачать фильм Лицо в толпе бесплатно
    Лицо в толпе скачать торрент в хорошем качестве
    Лицо в толпе смотреть онлайн бесплатно в хорошем качестве


    Вы не можете начинать темы
    Вы не можете отвечать на сообщения
    Вы не можете редактировать свои сообщения
    Вы не можете удалять свои сообщения
    Вы не можете голосовать в опросах
    Вы не можете прикреплять файлы к сообщениям
    Вы можете скачивать файлы