Наша группа ВК в очередной раз забанена мы уходим в Телеграм, присоединяйтесь!!!

Лицензия

30

iTunes

Как приручить дракона 3

iTunes

1

1 сезон

Чернобыль

iTunes

Снегоуборщик

iTunes

Закатать в асфальт

8 сезон

Игра престолов

iTunes

Ральф против интернета Хит недели

ИГРА 18+

pack

ВАЖНО

!!Акция!!

Alien_RageХит недели

RePack

Resident Evil 21
pack

RePack

Metro:Exodus

!!Акция!!

Alien_Rage

RePack

fifa19

RePack

Assassins Creed: Odyssey

RePack

NEED FOR SPEED™ PAYBACK

3 сезон

9 сезон

Бесстыжие 9 сезон

Все сериалы

все сериалы на PB.wtf

RePack

FAR CRY 5
Ребята, катастрофически не хватает 2730р. для оплаты серверов за АПРЕЛЬ (всвязи с блокировками трафик упал в 3 раза), 1-2р., выручайте.
  

Монах с железным кулаком / San de huo shang yu chong mi liu (Саммо Хунг) [1977, боевик, драма, комедия, BDRip 1080p by msltel] AVO piratbit.org

Монах с железным кулаком через торрент piratbit.org

Раздают: 1 [ 0 KB/s ]
Размер: 8.05 GB | Добавлен: 13 д. назад | Торрент скачан:11 раз
Скачать  

07-05-2019 10:53 Монах с железным кулаком Скачать торрент  

Название: Монах с железным кулаком
Оригинальное название: San de huo shang yu chong mi liu
Год выпуска: 1977
Страна: Гонконг
Жанр: боевик, драма, комедия
Продолжительность: 01:32:33
Перевод: авторский

Режиссер: Саммо Хунг
В ролях: Саммо Хунг, Чан Синг, Джеймс Тьен, Фунг Харк-Он, Дин Шек, Ши-Кван Йен, Казанова Вон, Чинг-Йинг Лам, Ма Ву, Фэт Чунг

О фильме: Чун Майлук (в некоторых переводах Хоукер) — ученик монахов Шаолиня. Он изучает кунг-фу, чтобы отомстить за своего дядю, который был убит маньчжурами, контролирующими всю провинцию. Закончив обучение, в надежде преподать урок убийцам, объединяется с мастером кунг-фу монахом Сам Так, который учит группу фабричных рабочих, чтобы они смогли защитить себя. Когда маньчжуры атакуют фабрику и убивают там всех, Майлук и его буддийский друг решают нанести ответный удар... (Википедия)



Качество: BDRip 1080p
Формат: MKV
Видео: MPEG-4 AVC, 10.8 Mбит/с, 1920x818, 23.976 кадр/с
Аудио 1: русский, Vorbis, 256 Кбит/с, 2 ch, 44,1 kHz [авторский, Сергей Визгунов]
Аудио 2: китайский, DTS, 1509 kbps, 6 ch, 48 kHz [оригинал]
Субтитры: английские
Общее
Уникальный идентификатор : 250588257118589835355089278196966661396 (0xBC858AF592BEBCDE84EE3922F0EE9D14)
Полное имя : D:\Video\Монах с железным кулаком.1977.BDRip 1080p by msltel.mkv
Формат : Matroska
Версия формата : Version 4
Размер файла : 8,05 Гбайт
Продолжительность : 1 ч. 32 м.
Режим общего битрейта : Переменный
Общий поток : 12,4 Мбит/сек
Название фильма : Rip by msltel
Дата кодирования : UTC 2019-05-07 01:26:14
Программа кодирования : mkvmerge v8.2.0 ('World of Adventure') 64bit
Библиотека кодирования : libebml v1.3.1 + libmatroska v1.4.2

Видео
Идентификатор : 1
Формат : AVC
Формат/Информация : Advanced Video Codec
Профиль формата : High@L4.1
Настройки формата : CABAC / 4 Ref Frames
Параметр CABAC формата : Да
Параметр RefFrames формата : 4 кадра
Идентификатор кодека : V_MPEG4/ISO/AVC
Продолжительность : 1 ч. 32 м.
Битрейт : 10,8 Мбит/сек
Ширина : 1920 пикселей
Высота : 818 пикселей
Соотношение сторон : 2,35:1
Режим частоты кадров : Постоянный
Частота кадров : 23,976 (24000/1001) кадра/сек
Цветовое пространство : YUV
Субдискретизация насыщенности : 4:2:0
Битовая глубина : 8 бит
Тип развёртки : Прогрессивная
Бит/(Пиксели*Кадры) : 0.286
Размер потока : 6,96 Гбайт (86%)
Библиотека кодирования : x264 core 157 r2935 545de2f
Настройки программы : cabac=1 / ref=4 / deblock=1:-2:-2 / analyse=0x3:0x113 / me=umh / subme=11 / psy=1 / psy_rd=1.00:0.15 / mixed_ref=1 / me_range=32 / chroma_me=1 / trellis=2 / 8x8dct=1 / cqm=0 / deadzone=21,11 / fast_pskip=0 / chroma_qp_offset=-3 / threads=6 / lookahead_threads=1 / sliced_threads=0 / nr=0 / decimate=1 / interlaced=0 / bluray_compat=0 / constrained_intra=0 / bframes=10 / b_pyramid=2 / b_adapt=2 / b_bias=0 / direct=1 / weightb=1 / open_gop=0 / weightp=2 / keyint=230 / keyint_min=23 / scenecut=40 / intra_refresh=0 / rc_lookahead=40 / rc=crf / mbtree=1 / crf=20.3 / qcomp=0.60 / qpmin=0 / qpmax=69 / qpstep=4 / vbv_maxrate=50000 / vbv_bufsize=62500 / crf_max=0.0 / nal_hrd=none / filler=0 / ip_ratio=1.40 / aq=1:1.00
Язык : Chinese
Default : Да
Forced : Нет

Аудио #1
Идентификатор : 2
Формат : Vorbis
Параметр Floor формата : 1
Идентификатор кодека : A_VORBIS
Продолжительность : 1 ч. 32 м.
Вид битрейта : Переменный
Битрейт : 256 Кбит/сек
Каналы : 2 канала
Частота : 44,1 КГц
Частота кадров : 87,543 кадров/сек (504 SPF)
Метод сжатия : С потерями
Размер потока : 121 Мбайт (1%)
Заголовок : The Iron Fisted Monk.1977.JPN
Программа кодирования : Lavc58.51.100 libvorbis
Библиотека кодирования : Lavf58.27.102
Язык : Russian
Default : Да
Forced : Нет

Аудио #2
Идентификатор : 3
Формат : DTS
Формат/Информация : Digital Theater Systems
Идентификатор кодека : A_DTS
Продолжительность : 1 ч. 32 м.
Вид битрейта : Постоянный
Битрейт : 1509 Кбит/сек
Каналы : 6 каналов
ChannelLayout : C L R Ls Rs LFE
Частота : 48,0 КГц
Частота кадров : 93,750 кадра/сек (512 SPF)
Битовая глубина : 16 бит
Метод сжатия : С потерями
Размер потока : 999 Мбайт (12%)
Заголовок : original
Язык : Chinese
Default : Нет
Forced : Нет

Текст
Идентификатор : 4
Формат : UTF-8
Идентификатор кодека : S_TEXT/UTF8
Идентификатор кодека/Информация : UTF-8 Plain Text
Продолжительность : 1 ч. 30 м.
Битрейт : 30 бит/сек
ElementCount : 644
Размер потока : 20,3 Кбайт (0%)
Заголовок : английские
Язык : English
Default : Нет
Forced : Нет
piratbit.org



Скачать Монах с железным кулаком через торрент https://d.radikal.ru/d07/1905/29/491580bfe560.jpg Скачать фильм Монах с железным кулаком через торрент бесплантно в хорошем качестве О фильме: Чун Майлук (в некоторых переводах Хоукер) — ученик монахов Шаолиня. Он изучает кунг-фу, чтобы отомстить за своего дядю, который ... 10 10 4
Info! Золотая раздача, скачанное не засчитывается.
Торрент: Зарегистрирован [2019-05-07 10:53] · скачан: 11 раз
Статус: √ проверено
Размер: 8.05 GB
Как cкачать? Как скачать Монах с железным кулаком через торрент | qTorrent

% Раздел Тема Автор DL S | L
Азиатские фильмы [ 3.73 GB ] Монах с железным кулаком / San de huo shang yu chong mi liu [1977 BDRip 720p by msltel] AVO msltel Скачать
3 | 0


>> Регистрируемся здесь <<






Отзывы и комментарии о схеме читаем и пишем здесь: ---> Отзывы и комментарии о схеме

Новые благодарочки в телеграм довольных пользователей:
скриншот   скриншот   скриншот   скриншот   скриншот
    Дорогой пользователь! Огромная просьба, поблагодарите релизера, оцените раздачу и оставьте свои комментарий, если Вы скачали Монах с железным кулаком через торрент бесплатно! Внесите свою лепту в развитие PiratBit!
    Комментировать посты могут только пользователи прошедшие не сложную регистрацию
    Показать сообщения:    

    Монах с железным кулаком через торрент
    Скачать бесплатно Монах с железным кулаком
    Монах с железным кулаком скачать торрент
    Монах с железным кулаком смотреть онлайн
    Cкачать фильм Монах с железным кулаком бесплатно
    Монах с железным кулаком скачать торрент в хорошем качестве
    Монах с железным кулаком смотреть онлайн бесплатно в хорошем качестве


    Вы не можете начинать темы
    Вы не можете отвечать на сообщения
    Вы не можете редактировать свои сообщения
    Вы не можете удалять свои сообщения
    Вы не можете голосовать в опросах
    Вы не можете прикреплять файлы к сообщениям
    Вы можете скачивать файлы