Наша группа ВК в очередной раз забанена мы уходим в Телеграм, присоединяйтесь!!!

Лицензия

30

iTunes

Как приручить дракона 3

iTunes

1

1 сезон

Чернобыль

iTunes

Снегоуборщик

iTunes

Закатать в асфальт

8 сезон

Игра престолов

iTunes

Ральф против интернета Хит недели

ИГРА 18+

pack

ВАЖНО

!!Акция!!

Alien_RageХит недели

RePack

Resident Evil 21
pack

RePack

Metro:Exodus

!!Акция!!

Alien_Rage

RePack

fifa19

RePack

Assassins Creed: Odyssey

RePack

NEED FOR SPEED™ PAYBACK

3 сезон

9 сезон

Бесстыжие 9 сезон

Все сериалы

все сериалы на PB.wtf

RePack

FAR CRY 5
Ребята, катастрофически не хватает 2730р. для оплаты серверов за АПРЕЛЬ (всвязи с блокировками трафик упал в 3 раза), 1-2р., выручайте.
  

Большой злой лис и другие сказки / Le grand méchant renard et autres contes... (Патрик Имбер, Бенжамин Реннер / Patrick Imbert, Benjamin Renner)[2017, сказка, комедия, приключения, BDRip 1080p] [MVO] (SDI Media) piratbit.org

Большой злой лис и другие сказки через торрент piratbit.org

Раздают: 23 [ 0 KB/s ]
Размер: 4.01 GB | Добавлен: 9 д. назад | Торрент скачан:125 раз
Скачать  

10-05-2019 15:46 Большой злой лис и другие сказки Скачать торрент  

Большой злой лис и другие сказки / Le grand méchant renard et autres contes...
Страна: Франция
Жанр: мультфильм, сказка, комедия, приключения, семейный
Продолжительность: 01:19:16
Год выпуска: 2017
Перевод: Профессиональный (многоголосый закадровый) - SDI Media
Режиссёр: Патрик Имбер, Бенжамин Реннер / Patrick Imbert, Benjamin Renner
В ролях: Селин Ронте, Борис Релинже, Гийом Бушед, Гийом Дарно, Дамьен Витецка, Антуан Шумский, Жан-Луп Хорвитц, Кристоф Лемуан, Магали Розенцвейг, Камел Абдессадок
Описание: Если вы полагаете, что в сельской местности царят тишь да гладь, вы крупно ошибаетесь. На самом деле деревенская жизнь полна невероятных событий и приключений. Например, однажды пролётный аист подкидывает кролику и поросёнку ребеночка — с просьбой доставить его по адресу. В иной день лис невольно становится наседкой для троих цыплят, которые кличут его мамой и требуют заботы. А уж как дело доходит до Рождества, тут веселье охватывает всю ферму и окрестные леса.

|
Семпл: http://sendfile.su/1491621
Качество: BDRip 1080p
Формат: MKV
Видео: 1920x1080 (16:9), 25.000 fps, AVC, ~5296 Kbps, 0.102 bits/pixel
Аудио #1: Russian, 48.0 KHz, AC3, 6 ch, 384 kbps - Закадровый | SDI Media
Аудио #2: French / DTS 5.1 / 48 kHz / 1509 kbps
Субтитры: Русские (SRT), русские для людей с ослабленным слухом (SRT), французские (SRT), французские цветные (PGS)
General
Unique ID : 155416068616432374758065038228088564391 (0x74EC0BC931C3E97DA7A2BBA851E22AA7)
Complete name : Le.Grand.Mechant.Renard.et.Autres.Contes.2017.BDRip.1080p-RUTRACKER.mkv
Format : Matroska
Format version : Version 4
File size : 4.01 GiB
Duration : 1 h 19 min
Overall bit rate : 7 236 kb/s
Movie name : Le.Grand.Mechant.Renard.et.Autres.Contes.2017.BDRip.1080p-RUTRACKER
Encoded date : UTC 2019-04-29 19:49:47
Writing application : mkvmerge v33.1.0 ('Primrose') 64-bit
Writing library : libebml v1.3.7 + libmatroska v1.5.0
Cover : Yes
Attachments : cover.jpg

Video
ID : 1
Format : AVC
Format/Info : Advanced Video Codec
Format profile : High@L4.1
Format settings : CABAC / 4 Ref Frames
Format settings, CABAC : Yes
Format settings, Reference frames : 4 frames
Codec ID : V_MPEG4/ISO/AVC
Duration : 1 h 19 min
Bit rate : 5 296 kb/s
Width : 1 920 pixels
Height : 1 080 pixels
Display aspect ratio : 16:9
Frame rate mode : Constant
Frame rate : 25.000 FPS
Color space : YUV
Chroma subsampling : 4:2:0
Bit depth : 8 bits
Scan type : Progressive
Bits/(Pixel*Frame) : 0.102
Stream size : 2.93 GiB (73%)
Writing library : x264 core 152 r2851kMod ba24899
Encoding settings : cabac=1 / ref=4 / deblock=1:-3:-3 / analyse=0x3:0x113 / me=umh / subme=11 / psy=1 / fade_compensate=0.00 / psy_rd=1.00:0.00 / mixed_ref=1 / me_range=48 / chroma_me=1 / trellis=2 / 8x8dct=1 / cqm=0 / deadzone=21,11 / fast_pskip=0 / chroma_qp_offset=-2 / threads=12 / lookahead_threads=3 / sliced_threads=0 / nr=0 / decimate=1 / interlaced=0 / bluray_compat=0 / constrained_intra=0 / bframes=16 / b_pyramid=2 / b_adapt=2 / b_bias=0 / direct=3 / weightb=1 / open_gop=0 / weightp=2 / keyint=250 / keyint_min=25 / scenecut=40 / intra_refresh=0 / rc_lookahead=70 / rc=crf / mbtree=0 / crf=17.0000 / qcomp=0.60 / qpmin=0 / qpmax=69 / qpstep=4 / vbv_maxrate=50000 / vbv_bufsize=62500 / crf_max=0.0 / nal_hrd=none / filler=0 / ip_ratio=1.40 / pb_ratio=1.30 / aq=1:0.80
Language : French
Default : Yes
Forced : No
Color range : Limited
Color primaries : BT.709
Transfer characteristics : BT.709
Matrix coefficients : BT.709

Audio #1
ID : 2
Format : AC-3
Format/Info : Audio Coding 3
Commercial name : Dolby Digital
Codec ID : A_AC3
Duration : 1 h 19 min
Bit rate mode : Constant
Bit rate : 384 kb/s
Channel(s) : 6 channels
Channel layout : L R C LFE Ls Rs
Sampling rate : 48.0 kHz
Frame rate : 31.250 FPS (1536 SPF)
Bit depth : 16 bits
Compression mode : Lossy
Stream size : 218 MiB (5%)
Title : Закадровый | SDI Media
Language : Russian
Service kind : Complete Main
Default : Yes
Forced : No

Audio #2
ID : 3
Format : DTS
Format/Info : Digital Theater Systems
Codec ID : A_DTS
Duration : 1 h 19 min
Bit rate mode : Constant
Bit rate : 1 509 kb/s
Channel(s) : 6 channels
Channel layout : C L R Ls Rs LFE
Sampling rate : 48.0 kHz
Frame rate : 93.750 FPS (512 SPF)
Bit depth : 24 bits
Compression mode : Lossy
Stream size : 856 MiB (21%)
Language : French
Default : No
Forced : No

Text #1
ID : 4
Format : UTF-8
Codec ID : S_TEXT/UTF8
Codec ID/Info : UTF-8 Plain Text
Duration : 1 h 18 min
Bit rate : 107 b/s
Count of elements : 1135
Stream size : 61.8 KiB (0%)
Language : Russian
Default : No
Forced : No

Text #2
ID : 5
Format : UTF-8
Codec ID : S_TEXT/UTF8
Codec ID/Info : UTF-8 Plain Text
Duration : 1 h 19 min
Bit rate : 119 b/s
Count of elements : 1515
Stream size : 69.5 KiB (0%)
Language : Russian
Default : No
Forced : No

Text #3
ID : 6
Format : UTF-8
Codec ID : S_TEXT/UTF8
Codec ID/Info : UTF-8 Plain Text
Duration : 1 h 19 min
Bit rate : 84 b/s
Count of elements : 1515
Stream size : 48.8 KiB (0%)
Language : French
Default : No
Forced : No

Text #4
ID : 7
Format : PGS
Codec ID : S_HDMV/PGS
Codec ID/Info : Picture based subtitle format used on BDs/HD-DVDs
Duration : 1 h 19 min
Bit rate : 43.1 kb/s
Count of elements : 3032
Stream size : 24.4 MiB (1%)
Language : French
Default : No
Forced : No

Menu
00:00:00.000 : :01
00:07:10.120 : :02
00:12:38.440 : :03
00:18:15.560 : :04
00:25:09.040 : :05
00:30:23.560 : :06
00:37:34.760 : :07
00:43:12.560 : :08
00:51:23.760 : :09
00:56:25.880 : :10
01:01:47.440 : :11
01:10:06.800 : :12
x264 [info]: 1920x1080p 0:0 @ 25/1 fps (cfr)
x264 [info]: using cpu capabilities: MMX2 SSE2Fast SSSE3 SSE4.2 AVX
x264 [info]: profile High, level 4.1
x264 [info]: cabac=1 ref=4 deblock=1:-3:-3 analyse=0x3:0x113 me=umh subme=11 psy=1 fade_compensate=0.00 psy_rd=1.00:0.00 mixed_ref=1 me_range=48 chroma_me=1 trellis=2 8x8dct=1 cqm=0 deadzone=21,11 fast_pskip=0 chroma_qp_offset=-2 threads=12 lookahead_threads=3 sliced_threads=0 nr=0 decimate=1 interlaced=0 bluray_compat=0 constrained_intra=0 bframes=16 b_pyramid=2 b_adapt=2 b_bias=0 direct=3 weightb=1 open_gop=0 weightp=2 keyint=250 keyint_min=25 scenecut=40 intra_refresh=0 rc_lookahead=70 rc=crf mbtree=0 crf=17.0000 qcomp=0.60 qpmin=0 qpmax=69 qpstep=4 vbv_maxrate=50000 vbv_bufsize=62500 crf_max=0.0 nal_hrd=none filler=0 ip_ratio=1.40 pb_ratio=1.30 aq=1:0.80
x264 [info]: frame I:954 Avg QP:12.90 size:527201
x264 [info]: frame P:37175 Avg QP:13.46 size: 53270
x264 [info]: frame B:80794 Avg QP:14.89 size: 8243
x264 [info]: consecutive B-frames: 2.3% 13.0% 46.4% 15.3% 12.9% 5.0% 2.2% 0.5% 0.4% 0.4% 0.2% 0.3% 0.2% 0.2% 0.2% 0.2% 0.4%
x264 [info]: mb I I16..4: 2.3% 84.2% 13.5%
x264 [info]: mb P I16..4: 0.1% 3.6% 0.5% P16..4: 32.0% 6.3% 7.8% 0.0% 0.0% skip:49.6%
x264 [info]: mb B I16..4: 0.1% 0.9% 0.1% B16..8: 18.1% 3.9% 1.0% direct: 1.4% skip:74.4% L0:30.1% L1:64.7% BI: 5.2%
x264 [info]: 8x8 transform intra:84.9% inter:38.2%
x264 [info]: direct mvs spatial:100.0% temporal:0.0%
x264 [info]: coded y,uvDC,uvAC intra: 83.7% 74.5% 67.4% inter: 8.7% 6.3% 2.9%
x264 [info]: i16 v,h,dc,p: 62% 18% 13% 7%
x264 [info]: i8 v,h,dc,ddl,ddr,vr,hd,vl,hu: 14% 11% 40% 5% 6% 5% 5% 6% 8%
x264 [info]: i4 v,h,dc,ddl,ddr,vr,hd,vl,hu: 14% 12% 9% 9% 12% 11% 11% 9% 12%
x264 [info]: i8c dc,h,v,p: 52% 28% 14% 6%
x264 [info]: Weighted P-Frames: Y:0.5% UV:0.4%
x264 [info]: ref P L0: 79.2% 2.2% 14.1% 4.3% 0.3% 0.0%
x264 [info]: ref B L0: 81.7% 13.8% 4.5%
x264 [info]: ref B L1: 97.1% 2.9%
x264 [info]: kb/s:5296.31
x264 [info]: encoded 118923 frames, 6.57 fps, 5296.31 kb/s, duration 5:01:33.56
скриншот  скриншот  скриншот  
piratbit.org



Скачать Большой злой лис и другие сказки через торрент https://i1.imageban.ru/out/2019/04/29/032d71a7d7820374e79d9c319cfebe3b.jpg Скачать фильм Большой злой лис и другие сказки через торрент бесплантно в хорошем качестве Описание: Если вы полагаете, что в сельской местности царят тишь да гладь, вы крупно ошибаетесь. На самом деле деревенская жизнь полна ... 10 10 5
Info! Золотая раздача, скачанное не засчитывается.
Торрент: Зарегистрирован [2019-05-10 15:46] · скачан: 125 раз
Статус: √ проверено
Размер: 4.01 GB
Как cкачать? Как скачать Большой злой лис и другие сказки через торрент | qTorrent

% Раздел Тема Автор DL S | L
Иностранные мультфильмы [ 1.46 GB ] Большой злой лис и другие сказки / Le grand méchant renard et autres contes... [2017 сказка BDRip] [MVO] killermax2013 Скачать
7 | 0


>> Регистрируемся здесь <<






Отзывы и комментарии о схеме читаем и пишем здесь: ---> Отзывы и комментарии о схеме

Новые благодарочки в телеграм довольных пользователей:
скриншот   скриншот   скриншот   скриншот   скриншот

12-05-2019 06:38 Большой злой лис и другие сказки Скачать торрент  

Хороший мульт piratbit.org



    Дорогой пользователь! Огромная просьба, поблагодарите релизера, оцените раздачу и оставьте свои комментарий, если Вы скачали Большой злой лис и другие сказки через торрент бесплатно! Внесите свою лепту в развитие PiratBit!
    Комментировать посты могут только пользователи прошедшие не сложную регистрацию
    Показать сообщения:    

    Большой злой лис и другие сказки через торрент
    Скачать бесплатно Большой злой лис и другие сказки
    Большой злой лис и другие сказки скачать торрент
    Большой злой лис и другие сказки смотреть онлайн
    Cкачать фильм Большой злой лис и другие сказки бесплатно
    Большой злой лис и другие сказки скачать торрент в хорошем качестве
    Большой злой лис и другие сказки смотреть онлайн бесплатно в хорошем качестве


    Вы не можете начинать темы
    Вы не можете отвечать на сообщения
    Вы не можете редактировать свои сообщения
    Вы не можете удалять свои сообщения
    Вы не можете голосовать в опросах
    Вы не можете прикреплять файлы к сообщениям
    Вы можете скачивать файлы