Мега распродажа FORZA HORIZON 4 ULTIMATE+ВСЕ DLC+ОНЛАЙН всего за 499р. 349 руб. (супер цена). Внимание количество ограничено!!!

iTunes

1+1

iTunes

мы

iTunes

1

1 сезон

Чернобыль

1 сезон

Ральф против интернета

Лицензия

ПШазам

8 сезон

Игра престолов

Лицензия

30
pack

ВАЖНО

!!Акция!!

Alien_RageХит недели

RePack

Resident Evil 21

ИГРА 18+

pack

RePack

Metro:Exodus

!!Акция!!

Alien_Rage

RePack

fifa19

RePack

Assassins Creed: Odyssey

RePack

NEED FOR SPEED™ PAYBACK

3 сезон

9 сезон

Бесстыжие 9 сезон

Все сериалы

все сериалы на PB.wtf

RePack

FAR CRY 5
Ребята, катастрофически не хватает 2730р. для оплаты серверов за ИЮНЬ (всвязи с блокировками трафик упал в 3 раза), 1-2р., выручайте.
  

Инопланетное Пристанище 2: Участок 24 / Alien Domicile 2: Lot 24 (Кертис Джонсон) [2018 г., Триллер, WEB-DLRip,Любительский (многоголосый)(Синема УС)] piratbit.org

Инопланетное Пристанище 2: Участок 24 через торрент piratbit.org

Раздают: 9 [ 0 KB/s ]
Размер: 1.32 GB | Добавлен: 2 мес. 7 д. назад | Торрент скачан:308 раз
Скачать  

12-05-2019 04:19 Инопланетное Пристанище 2: Участок 24 Скачать торрент  

Инопланетное Пристанище 2: Участок 24 / Alien Domicile 2: Lot 24
Год выпуска: 2018
Страна: США / Dogs Den Films
Жанр: Триллер
Продолжительность: 01:13:05
Перевод: Любительский (многоголосый)(Синема УС)
Субтитры: нет

Режиссер: Кертис Джонсон

rating

В ролях: Тренелл Бланкс, Kathryn Whitney, Аби Смидт, Enoch Greenhood, Shane Franklin, Деклан МакГи, Jordan Johnson, Nijah Fudge ...

Описание: эйчел с друзьями решили провести выходные в лесу на участке номер 24, принадлежавшем её дяде, который пропал два года назад. Вот только деревья на этой земле — врата в другой мир...

Доп. информация: Присутствуют вставки текстовой рекламы

Качество: WEB-DLRip
Формат: AVI
Видео кодек: XviD
Аудио кодек: AC3
Видео: XviD, 720x400, ~2189 Kbps
Аудио#1: AC-3, 2 ch, 384 Kbps
скриншот   скриншот   скриншот   скриншот  

Общее
Полное имя : C:\_\Инопланетное Пристанище 2\Alien Domicile 2 2018 WEB-DLRip.avi
Формат : AVI
Формат/Информация : Audio Video Interleave
Профиль формата : OpenDML
Размер файла : 1,32 Гбайт
Продолжительность : 1 ч. 13 м.
Общий поток : 2585 Кбит/сек

Видео
Идентификатор : 0
Формат : MPEG-4 Visual
Профиль формата : Advanced Simple@L5
Параметр BVOP формата : 2
Параметр QPel формата : Нет
Параметр GMC формата : Без точки перехода
Параметр матрицы формата : Выборочная
Идентификатор кодека : XVID
Идентификатор кодека/Подсказка : XviD
Продолжительность : 1 ч. 13 м.
Битрейт : 2189 Кбит/сек
Ширина : 720 пикселей
Высота : 400 пикселей
Соотношение сторон : 16:9
Частота кадров : 23,976 (24000/1001) кадра/сек
Цветовое пространство : YUV
Субдискретизация насыщенности : 4:2:0
Битовая глубина : 8 бит
Тип развёртки : Прогрессивная
Метод сжатия : С потерями
Бит/(Пиксели*Кадры) : 0.317
Размер потока : 1,12 Гбайт (85%)
Библиотека кодирования : XviD 1.2.1 (UTC 2008-12-04)

Аудио
Идентификатор : 1
Формат : AC-3
Формат/Информация : Audio Coding 3
Расширение режима : CM (complete main)
Параметр Endianness формата : Big
Идентификатор кодека : 2000
Продолжительность : 1 ч. 13 м.
Вид битрейта : Постоянный
Битрейт : 384 Кбит/сек
Каналы : 2 канала
Расположение каналов : Front: L R
Частота : 48,0 КГц
Частота кадров : 31,250 кадров/сек (1536 spf)
Метод сжатия : С потерями
Размер потока : 201 Мбайт (15%)
Выравнивание : Соединение по промежуткам
Продолжительность промежутка : 32 мс. (0,77 видеокадр)

piratbit.org



Скачать Инопланетное Пристанище 2: Участок 24 через торрент http://pic1.kartinco.top/images/12/fl6po.jpg Скачать фильм Инопланетное Пристанище 2: Участок 24 через торрент бесплантно в хорошем качестве Описание: эйчел с друзьями решили провести выходные в лесу на участке номер 24, принадлежавшем её дяде, который пропал два года назад. Вот ... 8.3 10 16
Info! Золотая раздача, скачанное не засчитывается.
Торрент: Зарегистрирован [2019-05-12 04:19] · скачан: 308 раз
Статус: T временная
Размер: 1.32 GB
Как cкачать? Как скачать Инопланетное Пристанище 2: Участок 24 через торрент | qTorrent


>> Регистрируемся здесь <<






Отзывы и комментарии о схеме читаем и пишем здесь: ---> Отзывы и комментарии о схеме

Новые благодарочки в телеграм довольных пользователей:
скриншот   скриншот   скриншот   скриншот   скриншот

12-05-2019 06:23 Инопланетное Пристанище 2: Участок 24 Скачать торрент  

спасибо, давно ждал этот фильм!piratbit.org



12-05-2019 10:12 Инопланетное Пристанище 2: Участок 24 Скачать торрент  

tamburetko писал(а):

МОДЕРАТОР0674 писал(а):

спасибо ! мы инопланетяне давно фильм ждали . Основано на реальных событиях.

319 твоих инопланетных друзей наголосовали на 8.3 балла на имдб. думаю дожидаться когда хомо сапиенсы проголосуют или рискнуть посмотреть..
зы. всем известно, что у нас правительство на другой планете живет. из 450 штук проголосовали только 319 - и тут прогуливают

вот поэтому скоро в рейтинги то верить нельзя будет))с учетом всеобщей троллизацией...piratbit.org



12-05-2019 11:44 Инопланетное Пристанище 2: Участок 24 Скачать торрент  

по поводу фильма отзыв будет или трескотня гумонойдов piratbit.org



12-05-2019 12:19 Инопланетное Пристанище 2: Участок 24 Скачать торрент  

Рейтинг фильма завышен, больше 3 не поставить, лучше не тратьте времяpiratbit.org



12-05-2019 14:24 Инопланетное Пристанище 2: Участок 24 Скачать торрент  

algebraid писал(а):

Рейтинг фильма завышен, больше 3 не поставить, лучше не тратьте время

Так сразу же видно что трешакpiratbit.org



12-05-2019 19:28 Инопланетное Пристанище 2: Участок 24 Скачать торрент  

Ужасная бредятина!!!piratbit.org



13-05-2019 12:31 Инопланетное Пристанище 2: Участок 24 Скачать торрент  

Уснул через 15 минут. Засыпал и просыпался несколько раз под одну и ту-же "музыку" (или не музыку, даже не знаю, как назвать).piratbit.org



13-05-2019 14:41 Инопланетное Пристанище 2: Участок 24 Скачать торрент  

Сняли за одну ночь по ходу.... Но с друзьями посмеялись над ляпами.piratbit.org



14-05-2019 14:14 Инопланетное Пристанище 2: Участок 24 Скачать торрент  

Рейтинг зашкаливает, но внутренний голос подсказывает не качать и поберечь психику.piratbit.org



16-05-2019 10:19 Инопланетное Пристанище 2: Участок 24 Скачать торрент  

грустная ржакаpiratbit.org



19-05-2019 07:35 Инопланетное Пристанище 2: Участок 24 Скачать торрент  

Всем смотреть! Шедевр современного кораблестроения! Лучшее из йогуртов! Теплое и сахар! Небо, камаз, да!!!piratbit.org



    Дорогой пользователь! Огромная просьба, поблагодарите релизера, оцените раздачу и оставьте свои комментарий, если Вы скачали Инопланетное Пристанище 2: Участок 24 через торрент бесплатно! Внесите свою лепту в развитие PiratBit!
    Комментировать посты могут только пользователи прошедшие не сложную регистрацию
    Показать сообщения:    

    Инопланетное Пристанище 2: Участок 24 через торрент
    Скачать бесплатно Инопланетное Пристанище 2: Участок 24
    Инопланетное Пристанище 2: Участок 24 скачать торрент
    Инопланетное Пристанище 2: Участок 24 смотреть онлайн
    Cкачать фильм Инопланетное Пристанище 2: Участок 24 бесплатно
    Инопланетное Пристанище 2: Участок 24 скачать торрент в хорошем качестве
    Инопланетное Пристанище 2: Участок 24 смотреть онлайн бесплатно в хорошем качестве


    Вы не можете начинать темы
    Вы не можете отвечать на сообщения
    Вы не можете редактировать свои сообщения
    Вы не можете удалять свои сообщения
    Вы не можете голосовать в опросах
    Вы не можете прикреплять файлы к сообщениям
    Вы можете скачивать файлы