Мега распродажа FORZA HORIZON 4 ULTIMATE+ВСЕ DLC+ОНЛАЙН всего за 499р. 349 руб. (супер цена). Внимание количество ограничено!!!

Лицензия

30

iTunes

мы

iTunes

1

1 сезон

Чернобыль

1 сезон

Ральф против интернета

MVO

Покемон. Детектив Пикачу

8 сезон

Игра престолов

iTunes

1+1

ИГРА 18+

pack

ВАЖНО

!!Акция!!

Alien_RageХит недели

RePack

Resident Evil 21
pack

RePack

Metro:Exodus

!!Акция!!

Alien_Rage

RePack

fifa19

RePack

Assassins Creed: Odyssey

RePack

NEED FOR SPEED™ PAYBACK

3 сезон

9 сезон

Бесстыжие 9 сезон

Все сериалы

все сериалы на PB.wtf

RePack

FAR CRY 5
Ребята, катастрофически не хватает 2730р. для оплаты серверов за МАЙ (всвязи с блокировками трафик упал в 3 раза), 1-2р., выручайте.
  

Лишённый жизни / The Minus Man (Хэмптон Фанчер) [1999 г., триллер, драма, криминал, детектив, WEB-DL 1080p] MVO piratbit.org

Лишённый жизни через торрент piratbit.org

Раздают: 1 [ 0 KB/s ]
Размер: 8.25 GB | Добавлен: 1 мес. 3 д. назад | Торрент скачан:21 раз
Скачать  

13-05-2019 04:35 Лишённый жизни Скачать торрент  

Лишённый жизни / The Minus Man
Год выпуска: 1999
Страна: США
Жанр: Триллер, драма, криминал, детектив
Продолжительность: 01:51:36
Перевод: Профессиональный (многоголосый)
Субтитры: Русские, английские

Режиссер: Хэмптон Фанчер

rating

В ролях: Оуэн Уилсон, Джанин Гарофало, Шерил Кроу, Дуайт Йоакам, Дэннис Хэйсбёрт, Алекс Уоррен, Мерседес Рул, Хлоя Блэк, Брайан Кокс, Мэтт Джералд, Эрик Мэбиас, Ларри Миллер, Эрик Холланд, Дэнни Рей, Брент Бриско, Джон Варгас, Лью МакКрири, Шеннон Кис, Мег Фостер, Мария Диаз, Дэвид Уоршофски, Марк Дервин, Литтл Джейк

Описание: Хладнокровный серийный убийца перемещается по всей стране и выбирает жертв из людей, которые жалуются на свою жизнь и готовы умереть. Его «подвиги» начаты с убийства безнадежной наркоманки.Убийца останавливается в приморской гостинице и выбирает в окрестностях следующих жертв. Полицейские сбились со следа в его поисках. Тем временем, он влюбляется в человека, который заставляет его поверить в себя, ради которого он готов оставить свою тягу к убийствам.
Качество: WEB-DL 1080p
Формат: MKV
Видео кодек: MPEG-4 AVC
Аудио кодек: AC3
Видео: MPEG-4 AVC, 10000 Кбит/с, 1920x1080, 23.976 Кадр/с
Аудио#1: Русский, AC3, 6 ch, 384 Кбит/с
Аудио#2: Английский, AC3, 6 ch, 256 Кбит/с
Видео
Идентификатор : 1
Формат : AVC
Формат/Информация : Advanced Video Codec
Профиль формата : High@L4
Настройки формата : CABAC / 4 Ref Frames
Параметр CABAC формата : Да
Параметр RefFrames формата : 4 кадра
Идентификатор кодека : V_MPEG4/ISO/AVC
Продолжительность : 1 ч. 51 м.
Вид битрейта : Постоянный
Битрейт : 10000 Кбит/сек
Ширина : 1920 пикселей
Высота : 1080 пикселей
Соотношение сторон : 16:9
Режим частоты кадров : Постоянный
Частота кадров : 23,976 (24000/1001) кадра/сек
Цветовое пространство : YUV
Субдискретизация насыщенности : 4:2:0
Битовая глубина : 8 бит
Тип развёртки : Прогрессивная
Бит/(Пиксели*Кадры) : 0.201
Размер потока : 7,74 Гбайт (94%)
Заголовок : The.Minus.Man.1999.1080p.AMZN.WEB-DL.DD5.1.H.264-SpaceHD13
Язык : Russian
Default : Да
Forced : Нет
Цветовой диапазон : Limited
Основные цвета : BT.709
Характеристики трансфера : BT.709
Коэффициенты матрицы : BT.709

Аудио #1
Идентификатор : 2
Формат : AC-3
Формат/Информация : Audio Coding 3
Коммерческое название : Dolby Digital
Идентификатор кодека : A_AC3
Продолжительность : 1 ч. 51 м.
Вид битрейта : Постоянный
Битрейт : 384 Кбит/сек
Каналы : 6 каналов
Channel layout : L R C LFE Ls Rs
Частота : 48,0 КГц
Частота кадров : 31,250 кадров/сек (1536 SPF)
Битовая глубина : 16 бит
Метод сжатия : С потерями
Размер потока : 306 Мбайт (4%)
Заголовок : MVO
Язык : Russian
ServiceKind/String : Complete Main
Default : Да
Forced : Нет

Аудио #2
Идентификатор : 3
Формат : E-AC-3
Формат/Информация : Enhanced AC-3
Коммерческое название : Dolby Digital Plus
Идентификатор кодека : A_EAC3
Продолжительность : 1 ч. 51 м.
Вид битрейта : Постоянный
Битрейт : 256 Кбит/сек
Каналы : 6 каналов
Channel layout : L R C LFE Ls Rs
Частота : 48,0 КГц
Частота кадров : 31,250 кадров/сек (1536 SPF)
Метод сжатия : С потерями
Размер потока : 204 Мбайт (2%)
Язык : English
ServiceKind/String : Complete Main
Default : Нет
Forced : Нет

Текст #1
Идентификатор : 4
Формат : UTF-8
Идентификатор кодека : S_TEXT/UTF8
Идентификатор кодека/Информация : UTF-8 Plain Text
Продолжительность : 1 ч. 45 м.
Битрейт : 66 бит/сек
ElementCount : 853
Размер потока : 51,6 Кбайт (0%)
Язык : Russian
Default : Да
Forced : Нет

Текст #2
Идентификатор : 5
Формат : UTF-8
Идентификатор кодека : S_TEXT/UTF8
Идентификатор кодека/Информация : UTF-8 Plain Text
Продолжительность : 1 ч. 51 м.
Битрейт : 46 бит/сек
ElementCount : 1150
Размер потока : 38,2 Кбайт (0%)
Язык : English
Default : Нет
Forced : Нет

скриншот  скриншот  скриншот  скриншот  

piratbit.org



Скачать Лишённый жизни через торрент http://pic1.kartinco.top/images/12/rpejo.jpg Скачать фильм Лишённый жизни через торрент бесплантно в хорошем качестве Описание: Хладнокровный серийный убийца перемещается по всей стране и выбирает жертв из людей, которые жалуются на свою жизнь и готовы ... 10 10 1
Торрент: Зарегистрирован [2019-05-13 04:35] · скачан: 21 раз
Статус: √ проверено
Размер: 8.25 GB
Как cкачать? Как скачать Лишённый жизни через торрент | qTorrent


>> Регистрируемся здесь <<






Отзывы и комментарии о схеме читаем и пишем здесь: ---> Отзывы и комментарии о схеме

Новые благодарочки в телеграм довольных пользователей:
скриншот   скриншот   скриншот   скриншот   скриншот
    Дорогой пользователь! Огромная просьба, поблагодарите релизера, оцените раздачу и оставьте свои комментарий, если Вы скачали Лишённый жизни через торрент бесплатно! Внесите свою лепту в развитие PiratBit!
    Комментировать посты могут только пользователи прошедшие не сложную регистрацию
    Показать сообщения:    

    Лишённый жизни через торрент
    Скачать бесплатно Лишённый жизни
    Лишённый жизни скачать торрент
    Лишённый жизни смотреть онлайн
    Cкачать фильм Лишённый жизни бесплатно
    Лишённый жизни скачать торрент в хорошем качестве
    Лишённый жизни смотреть онлайн бесплатно в хорошем качестве


    Вы не можете начинать темы
    Вы не можете отвечать на сообщения
    Вы не можете редактировать свои сообщения
    Вы не можете удалять свои сообщения
    Вы не можете голосовать в опросах
    Вы не можете прикреплять файлы к сообщениям
    Вы можете скачивать файлы