Мега распродажа FORZA HORIZON 4 ULTIMATE+ВСЕ DLC+ОНЛАЙН всего за 499р. 349 руб. (супер цена). Внимание количество ограничено!!!

Лицензия

30

iTunes

мы

iTunes

1

1 сезон

Чернобыль

1 сезон

Ральф против интернета

MVO

Покемон. Детектив Пикачу

8 сезон

Игра престолов

iTunes

1+1

ИГРА 18+

pack

ВАЖНО

!!Акция!!

Alien_RageХит недели

RePack

Resident Evil 21
pack

RePack

Metro:Exodus

!!Акция!!

Alien_Rage

RePack

fifa19

RePack

Assassins Creed: Odyssey

RePack

NEED FOR SPEED™ PAYBACK

3 сезон

9 сезон

Бесстыжие 9 сезон

Все сериалы

все сериалы на PB.wtf

RePack

FAR CRY 5
Ребята, катастрофически не хватает 2730р. для оплаты серверов за МАЙ (всвязи с блокировками трафик упал в 3 раза), 1-2р., выручайте.
  

#СеняФедя / Сезон : 2 / Серии: 1-12 из 12 (Антон Федотов) [2019, Комедия, WEB-DL 720p] piratbit.org

#СеняФедя через торрент piratbit.org

Раздают: 3 [ 0 KB/s ]
Размер: 7.21 GB | Добавлен: 18 д. назад | Торрент скачан:41 раз
Скачать  

13-05-2019 22:31 #СеняФедя Скачать торрент  

#СеняФедя-2
Год выпуска: 2019
Страна: Россия
Жанр: Комедия
Продолжительность: 00:24:00
Субтитры: Отсутствуют

Режиссер: Антон Федотов
Продюссер: Вячеслав Муругов, Антон Федотов, Евгений Юранов,...
Сценарий: Вячеслав Неронский

Премьера в мире: 13 Мая 2019



В ролях: Сергей Лавыгин, Михаил Тарабукин, Анна Бегунова, Ирина Серова, Леся Кудряшова, Сергей Марухин, Дмитрий Мазуров, Анастасия Шумилкина, Юлия Беляева

Описание: Сеня и Федя решают открыть собственный бизнес — закусочную на колёсах. Совместная работа не ладится с первого дня, но разойтись друзья не могут, ведь ничто так не объединяет людей, как совместный кредит. Попав в мир деловых отношений, парни сталкиваются не только с проблемой поиска компромиссов, но и с крупной сетью фудтраков, стремящихся вытеснить с улиц всех конкурентов. На фоне борьбы с акулами гастрономического бизнеса друзья не заметят, как поменяются ролями на личной «кухне»: семьянин Сеня попробует на вкус холостяцкую жизнь, а бабник Федя отправится на поиски тихой семейной гавани.

Качество: WEB-DL 720p
Формат: MKV
Видео кодек: H.264
Аудио кодек: AC3
Видео: MPEG4 Video H.264 (AVC),1280x720 (16:9), 3410 Кбит/сек, 25.000 fps, 0.148 bit/pixel
Аудио#1: AC3 Dolby Digital,192 Кбит/сек, 2 канала, 48,0 КГц

скриншот  
скриншот   скриншот   скриншот   скриншот   скриншот   скриншот  

Общее
Уникальный идентификатор : 244825891580262396496195468522967945948 (0xB82FC06741BA96FEA8438DB5DB8652DC)
Полное имя : D:\Фильмы с PIRATBIT\SenyaFedya.S02.2019.WEB-DL.(720p).Getty\SenyaFedya.s02e01.2019.WEB-DL.(720p).Getty.mkv
Формат : Matroska
Версия формата : Version 2
Размер файла : 614 Мбайт
Продолжительность : 23 м. 20 с.
Режим общего битрейта : Переменный
Общий поток : 3675 Кбит/сек
Дата кодирования : UTC 2019-05-13 17:29:59
Программа кодирования : mkvmerge v4.0.0 ('The Stars were mine') сборка от Jun 6 2010 16:18:42
Библиотека кодирования : libebml v1.0.0 + libmatroska v1.0.0

Видео
Идентификатор : 1
Формат : AVC
Формат/Информация : Advanced Video Codec
Профиль формата : High@L4.1
Настройки формата : CABAC / 5 Ref Frames
Параметр CABAC формата : Да
Параметр RefFrames формата : 5 кадров
Идентификатор кодека : V_MPEG4/ISO/AVC
Продолжительность : 23 м. 20 с.
Вид битрейта : Переменный
Битрейт : 3410 Кбит/сек
Максимальный битрейт : 40,0 Мбит/сек
Ширина : 1280 пикселей
Высота : 720 пикселей
Соотношение сторон : 16:9
Режим частоты кадров : Постоянный
Частота кадров : 25,000 кадров/сек
Цветовое пространство : YUV
Субдискретизация насыщенности : 4:2:0
Битовая глубина : 8 бит
Тип развёртки : Прогрессивная
Бит/(Пиксели*Кадры) : 0.148
Размер потока : 569 Мбайт (93%)
Язык : Russian
Default : Да
Forced : Нет

Аудио
Идентификатор : 2
Формат : AC-3
Формат/Информация : Audio Coding 3
Коммерческое название : Dolby Digital
Идентификатор кодека : A_AC3
Продолжительность : 23 м. 20 с.
Вид битрейта : Постоянный
Битрейт : 192 Кбит/сек
Каналы : 2 канала
ChannelLayout : L R
Частота : 48,0 КГц
Частота кадров : 31,250 кадров/сек (1536 SPF)
Битовая глубина : 16 бит
Метод сжатия : С потерями
Размер потока : 32,1 Мбайт (5%)
Язык : Russian
ServiceKind/String : Complete Main
Default : Да
Forced : Нет

Когда раздача ведётся путём добавления новых серий, при каждом добавлении создётся новый торрент. Чтобы начать докачку новой серии, пользователям необходимо сделать следующее:
(1) остановить скачивание,
(2) удалить старый торрент у себя из клиента (старые серии удалять не надо),
(3) скачать новый торрент и запустить его у себя в клиенте вместо старого, при этом указать клиенту путь в старую папку, куда и должно происходить скачивание новых серий.
Ваш клиент при этом должен произвести хеширование (проверку) старой папки (если не производит сам - помогите ему сделать это), и будет докачивать только те серии, которых у вас ещё нет. Старые серии при этом не удаляются, а продолжают раздаваться!
Eсли вы уже удалили старые серии, то предотвратить повторную закачку старых серий можно, отжав галочку в соответсвующих местах при запуске нового торрента. По возможности, желательно не удалять старые серии как можно дольше, чтобы релизёр не столько продолжал раздавать старые серии, а смог сконцентрироваться на новых.

piratbit.org



Скачать #СеняФедя через торрент http://pic1.kartinco.top/images/12/4mza8.jpg Скачать фильм #СеняФедя через торрент бесплантно в хорошем качестве Описание: Сеня и Федя решают открыть собственный бизнес — закусочную на колёсах. Совместная работа не ладится с первого дня, но разойтись ... 8.7 10 7
Торрент: Зарегистрирован [2019-06-01 12:42] · скачан: 41 раз
Статус: √ проверено
Размер: 7.21 GB
Как cкачать? Как скачать #СеняФедя через торрент | qTorrent

% Раздел Тема Автор DL S | L
Наши сериалы [ 3.6 GB ] #СеняФедя / Сезон : 2 / Серии: 1-12 из 12 [2019 WEB-DLRip-AVC] Sanekzade1989 Скачать
4 | 0
Наши сериалы [ 3.65 GB ] #СеняФедя / Сезон : 2 / Серии: 1-12 из 12 [2019 WEB-DLRip] Sanekzade1989 Скачать
3 | 0


Последний раз редактировалось: Sanekzade1989 (2019-05-18 11:41), всего редактировалось 2 раз(а)


>> Регистрируемся здесь <<






Отзывы и комментарии о схеме читаем и пишем здесь: ---> Отзывы и комментарии о схеме

Новые благодарочки в телеграм довольных пользователей:
скриншот   скриншот   скриншот   скриншот   скриншот
    Дорогой пользователь! Огромная просьба, поблагодарите релизера, оцените раздачу и оставьте свои комментарий, если Вы скачали #СеняФедя через торрент бесплатно! Внесите свою лепту в развитие PiratBit!
    Комментировать посты могут только пользователи прошедшие не сложную регистрацию
    Показать сообщения:    

    #СеняФедя через торрент
    Скачать бесплатно #СеняФедя
    #СеняФедя скачать торрент
    #СеняФедя смотреть онлайн
    Cкачать фильм #СеняФедя бесплатно
    #СеняФедя скачать торрент в хорошем качестве
    #СеняФедя смотреть онлайн бесплатно в хорошем качестве


    Вы не можете начинать темы
    Вы не можете отвечать на сообщения
    Вы не можете редактировать свои сообщения
    Вы не можете удалять свои сообщения
    Вы не можете голосовать в опросах
    Вы не можете прикреплять файлы к сообщениям
    Вы можете скачивать файлы