Мега распродажа FORZA HORIZON 4 ULTIMATE+ВСЕ DLC+ОНЛАЙН всего за 499р. 349 руб. (супер цена). Внимание количество ограничено!!!

Лицензия

30

iTunes

мы

iTunes

1

1 сезон

Чернобыль

1 сезон

Ральф против интернета

MVO

Покемон. Детектив Пикачу

8 сезон

Игра престолов

iTunes

1+1

ИГРА 18+

pack

ВАЖНО

!!Акция!!

Alien_RageХит недели

RePack

Resident Evil 21
pack

RePack

Metro:Exodus

!!Акция!!

Alien_Rage

RePack

fifa19

RePack

Assassins Creed: Odyssey

RePack

NEED FOR SPEED™ PAYBACK

3 сезон

9 сезон

Бесстыжие 9 сезон

Все сериалы

все сериалы на PB.wtf

RePack

FAR CRY 5
Ребята, катастрофически не хватает 2730р. для оплаты серверов за МАЙ (всвязи с блокировками трафик упал в 3 раза), 1-2р., выручайте.
  

Мешки для трупов / Body Bags (Джон Карпентер, Тоуб Хупер, Ларри Салкис) [1993 г., ужасы, фантастика, триллер, комедия, BDRip 720p] MVO, 2xAVO (Горчаков, Пронин) piratbit.org

Мешки для трупов через торрент piratbit.org

Раздают: 2 [ 0 KB/s ]
Размер: 6.14 GB | Добавлен: 1 мес. 6 д. назад | Торрент скачан:25 раз
Скачать  

14-05-2019 04:34 Мешки для трупов Скачать торрент  

Мешки для трупов / Body Bags
Год выпуска: 1993

Страна: США

Жанр: Ужасы, фантастика, триллер, комедия

Продолжительность: 01:34:23

Перевод: Профессиональный (многоголосый), авторский (одноголосый)

Субтитры: Русские, английские

Режиссер: Джон Карпентер, Тоуб Хупер, Ларри Салкис

rating

В ролях: Джон Карпентер, Том Арнольд, Тоуб Хупер, Роберт Кэрредин, Алекс Дэтчер, Питер Джейсон, Молли Чик, Уэс Крэйвен, Сэм Рэйми, Дэвид Нотон, Люси Бориер, Стейси Кич, Дэвид Уорнер, Шина Истон, Ким Алексис

Описание: Фильм мастеров жанра (Джона Карпентера и Тоуба Хупера) состоит их трех историй "Заправка", "Волосы" и "Глаз", которые объединяет одно - смерть. В первой новелле, «Бензоколонка», материализуются ужасы симпатичной афроамериканки, настоящей королевы автозаправки, заступившей на дежурство в ночную смену. Во второй новелле, «Волосы», стареющий жуир, озабоченный появлением лысины, получает столь радикальное средство для роста волос, что от ужаса волосы дыбом встают! В третьей новелле, с названием «Глаз» — попавшему в аварию бейсболисту вживляют глаз мертвеца, и он начинает видеть такое, что его настоящий глаз вовек не видывал…
Качество: BDRip 720p
Формат: MKV
Видео кодек: MPEG-4 AVC
Аудио кодек: AC3
Видео: MPEG-4 AVC, 8300 Kбит/с, 1280x720
Аудио#1: Русский, AC3, 2 ch, 192 Кбит/с - MVO (CTC)
Аудио#2: Русский, AC3, 2 ch, 192 Кбит/с - AVO (Василий Горчаков)
Аудио#3: Русский, AC3, 2 ch, 192 Кбит/с - AVO (Антон Пронин)
Аудио#4: Английский, AC3, 6 ch, 448 Кбит/с
Видео
Идентификатор : 1
Формат : AVC
Формат/Информация : Advanced Video Codec
Профиль формата : High@L4.1
Настройки формата : CABAC / 9 Ref Frames
Параметр CABAC формата : Да
Параметр RefFrames формата : 9 кадров
Идентификатор кодека : V_MPEG4/ISO/AVC
Продолжительность : 1 ч. 34 м.
Битрейт : 8300 Кбит/сек
Ширина : 1280 пикселей
Высота : 720 пикселей
Соотношение сторон : 16:9
Режим частоты кадров : Постоянный
Частота кадров : 23,976 (24000/1001) кадра/сек
Цветовое пространство : YUV
Субдискретизация насыщенности : 4:2:0
Битовая глубина : 8 бит
Тип развёртки : Прогрессивная
Бит/(Пиксели*Кадры) : 0.376
Размер потока : 5,47 Гбайт (89%)
Заголовок : Body.Bags.1993.BDRip.720p.264-MM
Библиотека кодирования : x264 core 157 r2935 545de2f
Настройки программы : cabac=1 / ref=9 / deblock=1:-3:-3 / analyse=0x3:0x133 / me=umh / subme=11 / psy=1 / psy_rd=1.01:0.00 / mixed_ref=1 / me_range=48 / chroma_me=1 / trellis=2 / 8x8dct=1 / cqm=0 / deadzone=21,11 / fast_pskip=0 / chroma_qp_offset=-2 / threads=12 / lookahead_threads=3 / sliced_threads=0 / nr=0 / decimate=0 / interlaced=0 / bluray_compat=0 / constrained_intra=0 / bframes=12 / b_pyramid=2 / b_adapt=2 / b_bias=0 / direct=3 / weightb=1 / open_gop=1 / weightp=2 / keyint=250 / keyint_min=23 / scenecut=40 / intra_refresh=0 / rc_lookahead=60 / rc=2pass / mbtree=0 / bitrate=8300 / ratetol=1.0 / qcomp=0.60 / qpmin=0 / qpmax=69 / qpstep=4 / cplxblur=20.0 / qblur=0.5 / vbv_maxrate=50000 / vbv_bufsize=62500 / nal_hrd=none / filler=0 / ip_ratio=1.40 / pb_ratio=1.30 / aq=1:1.10
Язык : English
Default : Да
Forced : Нет

Аудио #1
Идентификатор : 2
Формат : AC-3
Формат/Информация : Audio Coding 3
Коммерческое название : Dolby Digital
Идентификатор кодека : A_AC3
Продолжительность : 1 ч. 34 м.
Вид битрейта : Постоянный
Битрейт : 192 Кбит/сек
Каналы : 2 канала
Channel layout : L R
Частота : 48,0 КГц
Частота кадров : 31,250 кадров/сек (1536 SPF)
Битовая глубина : 16 бит
Метод сжатия : С потерями
Размер потока : 130 Мбайт (2%)
Заголовок : MVO CTC
Язык : Russian
ServiceKind/String : Complete Main
Default : Да
Forced : Нет

Аудио #2
Идентификатор : 3
Формат : AC-3
Формат/Информация : Audio Coding 3
Коммерческое название : Dolby Digital
Идентификатор кодека : A_AC3
Продолжительность : 1 ч. 34 м.
Вид битрейта : Постоянный
Битрейт : 192 Кбит/сек
Каналы : 2 канала
Channel layout : L R
Частота : 48,0 КГц
Частота кадров : 31,250 кадров/сек (1536 SPF)
Битовая глубина : 16 бит
Метод сжатия : С потерями
Размер потока : 130 Мбайт (2%)
Заголовок : AVO Василий Горчаков
Язык : Russian
ServiceKind/String : Complete Main
Default : Нет
Forced : Нет

Аудио #3
Идентификатор : 4
Формат : AC-3
Формат/Информация : Audio Coding 3
Коммерческое название : Dolby Digital
Идентификатор кодека : A_AC3
Продолжительность : 1 ч. 34 м.
Вид битрейта : Постоянный
Битрейт : 192 Кбит/сек
Каналы : 2 канала
Channel layout : L R
Частота : 48,0 КГц
Частота кадров : 31,250 кадров/сек (1536 SPF)
Битовая глубина : 16 бит
Метод сжатия : С потерями
Размер потока : 130 Мбайт (2%)
Заголовок : AVO Антон Пронин
Язык : Russian
ServiceKind/String : Complete Main
Default : Нет
Forced : Нет

Аудио #4
Идентификатор : 5
Формат : AC-3
Формат/Информация : Audio Coding 3
Коммерческое название : Dolby Digital
Идентификатор кодека : A_AC3
Продолжительность : 1 ч. 34 м.
Вид битрейта : Постоянный
Битрейт : 448 Кбит/сек
Каналы : 6 каналов
Channel layout : L R C LFE Ls Rs
Частота : 48,0 КГц
Частота кадров : 31,250 кадров/сек (1536 SPF)
Битовая глубина : 16 бит
Метод сжатия : С потерями
Размер потока : 302 Мбайт (5%)
Язык : English
ServiceKind/String : Complete Main
Default : Нет
Forced : Нет

Текст #1
Идентификатор : 6
Формат : UTF-8
Идентификатор кодека : S_TEXT/UTF8
Идентификатор кодека/Информация : UTF-8 Plain Text
Продолжительность : 1 ч. 24 м.
Битрейт : 3 бит/сек
ElementCount : 41
Размер потока : 2,13 Кбайт (0%)
Заголовок : Forced
Язык : Russian
Default : Да
Forced : Нет

Текст #2
Идентификатор : 7
Формат : UTF-8
Идентификатор кодека : S_TEXT/UTF8
Идентификатор кодека/Информация : UTF-8 Plain Text
Продолжительность : 1 ч. 33 м.
Битрейт : 72 бит/сек
ElementCount : 844
Размер потока : 49,6 Кбайт (0%)
Заголовок : Full
Язык : Russian
Default : Нет
Forced : Нет

Текст #3
Идентификатор : 8
Формат : UTF-8
Идентификатор кодека : S_TEXT/UTF8
Идентификатор кодека/Информация : UTF-8 Plain Text
Продолжительность : 1 ч. 30 м.
Битрейт : 46 бит/сек
ElementCount : 1029
Размер потока : 30,8 Кбайт (0%)
Язык : English
Default : Нет
Forced : Нет

Меню
00:00:00.000 : en:Chapter 1
00:06:15.000 : en:Chapter 2
00:13:45.825 : en:Chapter 3
00:20:36.235 : en:Chapter 4
00:26:40.224 : en:Chapter 5
00:33:11.990 : en:Chapter 6
00:42:14.532 : en:Chapter 7
00:48:26.904 : en:Chapter 8
00:55:14.311 : en:Chapter 9
01:04:37.874 : en:Chapter 10
01:13:12.013 : en:Chapter 11
01:23:52.653 : en:Chapter 12
01:31:34.114 : en:Chapter 13

скриншот   скриншот   скриншот   скриншот   скриншот  

piratbit.org



Скачать Мешки для трупов через торрент http://pic1.kartinco.top/images/12/v9f26.jpg Скачать фильм Мешки для трупов через торрент бесплантно в хорошем качестве Описание: Фильм мастеров жанра (Джона Карпентера и Тоуба Хупера) состоит их трех историй "Заправка", "Волосы" и "Глаз", которые объединяет ... 10 10 2
Info! Золотая раздача, скачанное не засчитывается.
Торрент: Зарегистрирован [2019-05-14 04:34] · скачан: 25 раз
Статус: √ проверено
Размер: 6.14 GB
Как cкачать? Как скачать Мешки для трупов через торрент | qTorrent

% Раздел Тема Автор DL S | L
Фильмы (Blu-ray, BD-Remux, HDDVD) [ 22.34 GB ] Мешки для трупов / Body Bags [1993 BD Remux 1080р] MVO+AVO bober100 Скачать
1 | 0
Фильмы до 2000 г. [ 2.74 GB ] Мешки для трупов / Body Bags [1993 BDRip-AVC] MVO AVO koenig Скачать
1 | 0
Фильмы до 2000 г. [ 1.56 GB ] Мешки для трупов / Body Bags [1993 HDRip-AVC] MVO [СТС] + Original] кэп Скачать
1 | 0


>> Регистрируемся здесь <<






Отзывы и комментарии о схеме читаем и пишем здесь: ---> Отзывы и комментарии о схеме

Новые благодарочки в телеграм довольных пользователей:
скриншот   скриншот   скриншот   скриншот   скриншот
    Дорогой пользователь! Огромная просьба, поблагодарите релизера, оцените раздачу и оставьте свои комментарий, если Вы скачали Мешки для трупов через торрент бесплатно! Внесите свою лепту в развитие PiratBit!
    Комментировать посты могут только пользователи прошедшие не сложную регистрацию
    Показать сообщения:    

    Мешки для трупов через торрент
    Скачать бесплатно Мешки для трупов
    Мешки для трупов скачать торрент
    Мешки для трупов смотреть онлайн
    Cкачать фильм Мешки для трупов бесплатно
    Мешки для трупов скачать торрент в хорошем качестве
    Мешки для трупов смотреть онлайн бесплатно в хорошем качестве


    Вы не можете начинать темы
    Вы не можете отвечать на сообщения
    Вы не можете редактировать свои сообщения
    Вы не можете удалять свои сообщения
    Вы не можете голосовать в опросах
    Вы не можете прикреплять файлы к сообщениям
    Вы можете скачивать файлы