Наша группа ВК в очередной раз забанена мы уходим в Телеграм, присоединяйтесь!!!

Лицензия

30

iTunes

Как приручить дракона 3

iTunes

1

1 сезон

Чернобыль

iTunes

Снегоуборщик

iTunes

Закатать в асфальт

8 сезон

Игра престолов

iTunes

Ральф против интернета Хит недели

ИГРА 18+

pack

ВАЖНО

!!Акция!!

Alien_RageХит недели

RePack

Resident Evil 21
pack

RePack

Metro:Exodus

!!Акция!!

Alien_Rage

RePack

fifa19

RePack

Assassins Creed: Odyssey

RePack

NEED FOR SPEED™ PAYBACK

3 сезон

9 сезон

Бесстыжие 9 сезон

Все сериалы

все сериалы на PB.wtf

RePack

FAR CRY 5
Ребята, катастрофически не хватает 2730р. для оплаты серверов за АПРЕЛЬ (всвязи с блокировками трафик упал в 3 раза), 1-2р., выручайте.
  

Медовый месяц / Elizabeth Harvest (Себастьян Гутьеррес) [2018 г., триллер, фантастика, BDRip 1080p, Дубляж iTunes] piratbit.org

Медовый месяц через торрент piratbit.org

Раздают: 21 [ 10 KB/s ] Качают: 1 [ 0 KB/s ]
Размер: 10.45 GB | Добавлен: 6 д. назад | Торрент скачан:81 раз
Скачать  

14-05-2019 14:52 Медовый месяц Скачать торрент  

Медовый месяц / Elizabeth Harvest
Год выпуска: 2018
Страна: США, Automatik Entertainment, Motion Picture Capital, Voltage Pictures
Жанр: триллер, фантастика
Продолжительность: 01:48:51
Перевод: Дубляж iTunes
Субтитры: Русские, английские

Режиссер: Себастьян Гутьеррес

Премьера в мире: 10 марта 2018

rating

В ролях: Эбби Ли, Киаран Хайндс, Дилан Бэйкер, Мэттью Бирд, Карла Гуджино

Описание: Элизабет всегда мечтала очаровать достойного человека, и чтобы он увёз её подальше ото всех уродств этого мира. И вот мечта сбывается — девушка выходит замуж за блестящего учёного Генри, на много лет её старше. Тот привозит жену в свой особняк, и говорит, что все в этом доме — для неё, кроме одной комнаты, в которую нельзя заходить ни в коем случае. Прислуга относится к новой хозяйке с почтением, но та чувствует, что что-то не так. Однажды, когда супруг отлучается по делам, Элизабет решает выяснить, что же это за загадочная запретная комната.

Качество: BDRip 1080p - SA89
Формат: MKV
Видео кодек: H.264
Аудио кодек: AC3, DTS
Видео: AVC, 11.9 Мбит/с, 1920x806, 23.976 Кадр/с
Аудио#1: 48 kHz, AC3, 5.1, 384 Kbps (Русский дубляж)
Аудио#2: 48 kHz, DTS, 5.1, 1509 Kbps - Оригинал
Субтитры: Russian (Forced - BLUEBIRD, Full-length), English (Full-length, SDH)
Релиз от:
--crf 16.5 --preset very slow --me umh --subme 10 --bframes 8 --deblock -3:-3 --ipratio 1.4 --pbratio 1.3 --psy-rd 1.0
--qcomp 0.6 --aq-strength 3.8 --merange 32 --no-mbtree --fast_pskip=1 --decimate=1

x264 [info]: frame I:954 Avg QP:12.22 size:228599
x264 [info]: frame P:31163 Avg QP:13.08 size:109393
x264 [info]: frame B:124466 Avg QP:14.74 size: 48588

Формат : Matroska
Версия формата : Version 4
Размер файла : 10,5 Гбайт
Продолжительность : 1 ч. 48 м.
Общий поток : 13,7 Мбит/сек
Название фильма : Elizabeth.Harvest.2018.x264.BDRip.1080p.Rus.Eng.BLUEBIRD
Дата кодирования : UTC 2019-05-07 16:10:30
Программа кодирования : mkvmerge v7.9.0 ('Birds') 64bit
Библиотека кодирования : libebml v1.3.1 + libmatroska v1.4.2

Видео
Идентификатор : 1
Формат : AVC
Формат/Информация : Advanced Video Codec
Профиль формата : High@L4.1
Настройки формата : CABAC / 5 Ref Frames
Параметр CABAC формата : Да
Параметр RefFrames формата : 5 кадров
Идентификатор кодека : V_MPEG4/ISO/AVC
Продолжительность : 1 ч. 48 м.
Битрейт : 11,9 Мбит/сек
Ширина : 1920 пикселей
Высота : 806 пикселей
Соотношение сторон : 2,40:1
Режим частоты кадров : Постоянный
Частота кадров : 23,976 (24000/1001) кадра/сек
Цветовое пространство : YUV
Субдискретизация насыщенности : 4:2:0
Битовая глубина : 8 бит
Тип развёртки : Прогрессивная
Бит/(Пиксели*Кадры) : 0.319
Размер потока : 9,01 Гбайт (86%)
Заголовок : Elizabeth.Harvest.2018.x264.BDRip.1080p.Rus.Eng.BLUEBIRD
Библиотека кодирования : x264 core 152 r2851 ba24899
Настройки программы : cabac=1 / ref=5 / deblock=1:-3:-3 / analyse=0x3:0x133 / me=umh / subme=10 / psy=1 / psy_rd=1.00:0.00 / mixed_ref=1 / me_range=24 / chroma_me=1 / trellis=2 / 8x8dct=1 / cqm=0 / deadzone=21,11 / fast_pskip=1 / chroma_qp_offset=-2 / threads=6 / lookahead_threads=1 / sliced_threads=0 / nr=0 / decimate=1 / interlaced=0 / bluray_compat=0 / constrained_intra=0 / bframes=8 / b_pyramid=2 / b_adapt=2 / b_bias=0 / direct=3 / weightb=1 / open_gop=0 / weightp=2 / keyint=250 / keyint_min=25 / scenecut=40 / intra_refresh=0 / rc_lookahead=60 / rc=crf / mbtree=0 / crf=16.5 / qcomp=0.60 / qpmin=0 / qpmax=69 / qpstep=4 / vbv_maxrate=62500 / vbv_bufsize=78125 / crf_max=0.0 / nal_hrd=none / filler=0 / ip_ratio=1.40 / pb_ratio=1.30 / aq=3:0.80 / zones=1401,1993,crf=15.5/3450,3662,crf=15.5/8975,9531,crf=15.5/12573,13458,crf=15.5/16560,17127,crf=14.5/17989,18106,crf=14.5/19884,20285,crf=15.5/22488,22547,crf=14.5/33278,33313,crf=15.5/33673,33834,crf=14.5/45838,45953,crf=15.5/46104,46265,crf=14.5/46851,46976,crf=15.5/47530,47891,crf=14.5/51138,51254,crf=14.5/55164,55762,crf=14.5/55763,56296,crf=15.5/59074,63049,crf=14.5/70440,70634,crf=15.5/94760,95439,crf=14.5/101250,102066,crf=14.5/109454,110028,crf=14.5/110258,110954,crf=14.5/111686,111887,crf=14.5/114639,114835,crf=15.5/121944,122063,crf=14.5/122911,125752,crf=14.5/139507,139651,crf=14.5/139706,140050,crf=14.5/140967,146149,crf=14.5/146500,146936,crf=14.5
Язык : English
Default : Да
Forced : Нет

Аудио #1
Идентификатор : 2
Формат : AC-3
Формат/Информация : Audio Coding 3
Коммерческое название : Dolby Digital
Идентификатор кодека : A_AC3
Продолжительность : 1 ч. 48 м.
Вид битрейта : Постоянный
Битрейт : 384 Кбит/сек
Каналы : 6 каналов
Channel layout : L R C LFE Ls Rs
Частота : 48,0 КГц
Частота кадров : 31,250 кадров/сек (1536 SPF)
Битовая глубина : 16 бит
Метод сжатия : С потерями
Размер потока : 299 Мбайт (3%)
Заголовок : Профессиональный многоголосый (iTunes)
Язык : Russian
ServiceKind/String : Complete Main
Default : Да
Forced : Нет

Аудио #2
Идентификатор : 3
Формат : DTS
Формат/Информация : Digital Theater Systems
Идентификатор кодека : A_DTS
Продолжительность : 1 ч. 48 м.
Вид битрейта : Постоянный
Битрейт : 1509 Кбит/сек
Каналы : 6 каналов
Channel layout : C L R Ls Rs LFE
Частота : 48,0 КГц
Частота кадров : 93,750 кадра/сек (512 SPF)
Битовая глубина : 24 бит
Метод сжатия : С потерями
Размер потока : 1,15 Гбайт (11%)
Заголовок : DTS Audio 5.1 ch 1509 Kbps
Язык : English
Default : Нет
Forced : Нет

Текст #1
Идентификатор : 4
Формат : UTF-8
Идентификатор кодека : S_TEXT/UTF8
Идентификатор кодека/Информация : UTF-8 Plain Text
Продолжительность : 4 с. 97 мс.
Битрейт : 701 бит/сек
ElementCount : 1
Размер потока : 359 байт (0%)
Заголовок : Forced (BLUEBIRD)
Язык : Russian
Default : Нет
Forced : Нет

Текст #2
Идентификатор : 5
Формат : UTF-8
Идентификатор кодека : S_TEXT/UTF8
Идентификатор кодека/Информация : UTF-8 Plain Text
Продолжительность : 1 ч. 43 м.
Битрейт : 64 бит/сек
ElementCount : 1006
Размер потока : 49,0 Кбайт (0%)
Заголовок : Full-length
Язык : Russian
Default : Нет
Forced : Нет

Текст #3
Идентификатор : 6
Формат : UTF-8
Идентификатор кодека : S_TEXT/UTF8
Идентификатор кодека/Информация : UTF-8 Plain Text
Продолжительность : 1 ч. 43 м.
Битрейт : 39 бит/сек
ElementCount : 1008
Размер потока : 29,6 Кбайт (0%)
Заголовок : Full-length
Язык : English
Default : Нет
Forced : Нет

Текст #4
Идентификатор : 7
Формат : UTF-8
Идентификатор кодека : S_TEXT/UTF8
Идентификатор кодека/Информация : UTF-8 Plain Text
Продолжительность : 1 ч. 48 м.
Битрейт : 41 бит/сек
ElementCount : 1223
Размер потока : 32,7 Кбайт (0%)
Заголовок : SDH
Язык : English
Default : Нет
Forced : Нет

Меню
00:00:00.000 : :Chapter 01
00:07:24.402 : :Chapter 02
00:16:16.225 : :Chapter 03
00:25:23.897 : :Chapter 04
00:34:56.636 : :Chapter 05
00:43:50.253 : :Chapter 06
00:53:28.080 : :Chapter 07
01:03:53.872 : :Chapter 08
01:13:17.518 : :Chapter 09
01:24:45.622 : :Chapter 10
01:37:38.144 : :Chapter 11
01:44:28.262 : :Chapter 12

Fixed OCR subs.
Logo Debanded.
Used zones in dark scenes.

piratbit.org



Скачать Медовый месяц через торрент http://img14.lostpic.net/2019/05/14/f9522392dd6198a6689e9cb303d40f92.png Скачать фильм Медовый месяц через торрент бесплантно в хорошем качестве Описание: Элизабет всегда мечтала очаровать достойного человека, и чтобы он увёз её подальше ото всех уродств этого мира. И вот мечта ... 10 10 3
Info! Золотая раздача, скачанное не засчитывается.
Торрент: Зарегистрирован [2019-05-14 14:52] · скачан: 81 раз
Статус: √ проверено
Размер: 10.45 GB
Как cкачать? Как скачать Медовый месяц через торрент | qTorrent


>> Регистрируемся здесь <<






Отзывы и комментарии о схеме читаем и пишем здесь: ---> Отзывы и комментарии о схеме

Новые благодарочки в телеграм довольных пользователей:
скриншот   скриншот   скриншот   скриншот   скриншот
    Дорогой пользователь! Огромная просьба, поблагодарите релизера, оцените раздачу и оставьте свои комментарий, если Вы скачали Медовый месяц через торрент бесплатно! Внесите свою лепту в развитие PiratBit!
    Комментировать посты могут только пользователи прошедшие не сложную регистрацию
    Показать сообщения:    

    Медовый месяц через торрент
    Скачать бесплатно Медовый месяц
    Медовый месяц скачать торрент
    Медовый месяц смотреть онлайн
    Cкачать фильм Медовый месяц бесплатно
    Медовый месяц скачать торрент в хорошем качестве
    Медовый месяц смотреть онлайн бесплатно в хорошем качестве


    Вы не можете начинать темы
    Вы не можете отвечать на сообщения
    Вы не можете редактировать свои сообщения
    Вы не можете удалять свои сообщения
    Вы не можете голосовать в опросах
    Вы не можете прикреплять файлы к сообщениям
    Вы можете скачивать файлы