Наша группа ВК в очередной раз забанена мы уходим в Телеграм, присоединяйтесь!!!

Лицензия

30

iTunes

Как приручить дракона 3

iTunes

1

1 сезон

Чернобыль

iTunes

Снегоуборщик

iTunes

Закатать в асфальт

8 сезон

Игра престолов

iTunes

Ральф против интернета Хит недели

ИГРА 18+

pack

ВАЖНО

!!Акция!!

Alien_RageХит недели

RePack

Resident Evil 21
pack

RePack

Metro:Exodus

!!Акция!!

Alien_Rage

RePack

fifa19

RePack

Assassins Creed: Odyssey

RePack

NEED FOR SPEED™ PAYBACK

3 сезон

9 сезон

Бесстыжие 9 сезон

Все сериалы

все сериалы на PB.wtf

RePack

FAR CRY 5
Ребята, катастрофически не хватает 2730р. для оплаты серверов за АПРЕЛЬ (всвязи с блокировками трафик упал в 3 раза), 1-2р., выручайте.
  

Честный человек / L'homme fidele (Луи Гаррель) [2019 г., Комедия, мелодрама, драма, WEB-DLRip,Любительский (многоголосый)(Синема УС) ] piratbit.org

Честный человек через торрент piratbit.org

Раздают: 6 [ 16 KB/s ]
Размер: 1.31 GB | Добавлен: 5 д. назад | Торрент скачан:48 раз
Скачать  

15-05-2019 03:10 Честный человек Скачать торрент  

Честный человек / L'homme fidele
Год выпуска: 2019
Страна: Франция / Why Not Productions, Canal+, Ciné+
Жанр: Комедия, мелодрама, драма
Продолжительность: 01:11:24
Перевод: Любительский (многоголосый)(Синема УС)
Субтитры: Отсутствуют

Режиссер: Луи Гаррель

rating

В ролях: Луи Гаррель, Летиция Каста, Лили-Роуз Депп, Джозеф Энджел, Диан Курсей, Владислав Галард, Бакари Сангаре, Кьяра Каррьер, Дали Бенссалах, Артур Игуал

Описание: Абель — последний романтик Парижа: он полон решимости вновь завоевать Марианну, которая восемь лет назад предпочла ему лучшего друга Поля. Теперь, когда Поля не стало, Абелю уже ничто не помешает вернуть любовь его жизни… разве что ревнивый сын Марианны, да одна очаровательная, по уши влюбленная в Абеля девушка — кажется, в этой истории любви даже самые невинные создания вынашивают коварные планы.

Доп. информация: Присутствуют вставки текстовой рекламы

Качество: WEB-DLRip
Формат: AVI
Видео кодек: XviD
Аудио кодек: AC3
Видео: XviD, 720x304, ~2223 Kbps
Аудио#1: AC-3, 2 ch, 384 Kbps
скриншот   скриншот   скриншот   скриншот  

Общее
Полное имя : C:\_\Честный человек\LHomme fidele 2018 WEB-DLRip.avi
Формат : AVI
Формат/Информация : Audio Video Interleave
Профиль формата : OpenDML
Размер файла : 1,31 Гбайт
Продолжительность : 1 ч. 11 м.
Общий поток : 2620 Кбит/сек

Видео
Идентификатор : 0
Формат : MPEG-4 Visual
Профиль формата : Advanced Simple@L5
Параметр BVOP формата : 2
Параметр QPel формата : Нет
Параметр GMC формата : Без точки перехода
Параметр матрицы формата : Выборочная
Идентификатор кодека : XVID
Идентификатор кодека/Подсказка : XviD
Продолжительность : 1 ч. 11 м.
Битрейт : 2223 Кбит/сек
Ширина : 720 пикселей
Высота : 304 пикселя
Соотношение сторон : 2,35:1
Частота кадров : 23,976 (24000/1001) кадра/сек
Цветовое пространство : YUV
Субдискретизация насыщенности : 4:2:0
Битовая глубина : 8 бит
Тип развёртки : Прогрессивная
Метод сжатия : С потерями
Бит/(Пиксели*Кадры) : 0.424
Размер потока : 1,11 Гбайт (85%)
Библиотека кодирования : XviD 1.2.1 (UTC 2008-12-04)

Аудио
Идентификатор : 1
Формат : AC-3
Формат/Информация : Audio Coding 3
Расширение режима : CM (complete main)
Параметр Endianness формата : Big
Идентификатор кодека : 2000
Продолжительность : 1 ч. 11 м.
Вид битрейта : Постоянный
Битрейт : 384 Кбит/сек
Каналы : 2 канала
Расположение каналов : Front: L R
Частота : 48,0 КГц
Частота кадров : 31,250 кадров/сек (1536 spf)
Метод сжатия : С потерями
Размер потока : 196 Мбайт (15%)
Выравнивание : Соединение по промежуткам
Продолжительность промежутка : 32 мс. (0,77 видеокадр)

piratbit.org



Скачать Честный человек через торрент http://pic1.kartinco.top/images/12/9scp1.jpg Скачать фильм Честный человек через торрент бесплантно в хорошем качестве Описание: Абель — последний романтик Парижа: он полон решимости вновь завоевать Марианну, которая восемь лет назад предпочла ему лучшего ... 10 10 3
Торрент: Зарегистрирован [2019-05-15 03:10] · скачан: 48 раз
Статус: T временная
Размер: 1.31 GB
Как cкачать? Как скачать Честный человек через торрент | qTorrent


>> Регистрируемся здесь <<






Отзывы и комментарии о схеме читаем и пишем здесь: ---> Отзывы и комментарии о схеме

Новые благодарочки в телеграм довольных пользователей:
скриншот   скриншот   скриншот   скриншот   скриншот
    Дорогой пользователь! Огромная просьба, поблагодарите релизера, оцените раздачу и оставьте свои комментарий, если Вы скачали Честный человек через торрент бесплатно! Внесите свою лепту в развитие PiratBit!
    Комментировать посты могут только пользователи прошедшие не сложную регистрацию
    Показать сообщения:    

    Честный человек через торрент
    Скачать бесплатно Честный человек
    Честный человек скачать торрент
    Честный человек смотреть онлайн
    Cкачать фильм Честный человек бесплатно
    Честный человек скачать торрент в хорошем качестве
    Честный человек смотреть онлайн бесплатно в хорошем качестве


    Вы не можете начинать темы
    Вы не можете отвечать на сообщения
    Вы не можете редактировать свои сообщения
    Вы не можете удалять свои сообщения
    Вы не можете голосовать в опросах
    Вы не можете прикреплять файлы к сообщениям
    Вы можете скачивать файлы