Достать ножи: Стеклянная луковица

MVO

Добыча

Дубляж

Уэнсдэй

1 сезон

Тор

Дубляж

13 клиническая

1 сезон

Жестокая ночь

MVO

Одни из нас

1 сезон

Deluxe

pack

Рекомендуем

30

Пиратка

ВАЖНО

ВАЖНО

Ghostwire

Пиратка

jed

RePack

nioh2

RePack

RDR2

RePack

NEED FOR SPEED™ PAYBACK

RePack

скачать торрент

Кинопоиск HD

Острые козырьки 6 сезон

6 сезон

FAR CRY 6

RePack

скачать торрент

Лицензия

скачать торрент

MVO

1

1 сезон

скачать торрент

1 сезон

скачать торрент

Лицензия

  

Адреналин / Crank (Марк Невелдайн , Брайан Тейлор) [2006, Боевик, триллер, криминал, UHD BDRip 2160p] Дубляж [Лицензия]

Адреналин через торрент piratbit.org

Раздают: 1 [ 0 KB/s ]
Размер: 13.98 GB | Добавлен: 3 года 8 мес. назад | Торрент скачан:45 раз
Смотреть онлайн | Скачать | Поддержите нас   

15-05-2019 08:48 Адреналин Скачать торрент  

Адреналин / Crank««Есть тысяча способов поднять адреналин... Сегодня ему нужны все!»»

Год выпуска: 2006
Страна: США
Жанр: Боевик, триллер, криминал
Продолжительность: 01:27:37
Перевод: Дублированный [Лицензия]
Субтитры: Русские (full), английские (full, SDH)
Режиссер: Марк Невелдайн , Брайан Тейлор
В ролях:

Джейсон Стэйтем (Chev Chelios), Эми Смарт (Eve), Хосе Пабло Кантильо (Verona), Эфрен Рамирез (Kaylo), Дуайт Йоакам (Doc Miles), Карлос Санс (Carlito), Рено Уилсон (Orlando), Эди Гатеги (Haitian Cabbie), Гленн Хоуертон (Doctor), Джей Ксала (Alex), Кион Янг (Don Kim), Валери Рэй Миллер (Chocolate)
Описание:
Наемный убийца Чев узнает, что недоброжелатели отравили его редким китайским ядом и отрава начнет действовать немедленно, как только пульс перестанет биться ниже определенной отметки.
Рейтинг:

MPAA: R - Лицам до 17 лет обязательно присутствие взрослого
Качество: UHD BDRip 2160p
Формат: MKV
Видео: HEVC HDR, 15.7 Мбит/с, 3840x2072, 23.976 кадр/с, 10 бит
Аудио: 48 kHz, AC3, 5.1, 384 Kbps | Дублированный |Лицензия|
Аудио: 48 kHz, TrueHD+Atmos , 7.1, 5906 Kbps | Оригинал | ENG
Аудио: 48 kHz, AC3, 5.1, 640 Kbps | Оригинал | ENG |
Навигация по главам: есть

Общее
Уникальный идентификатор : 188542571029261918745168246164822054100 (0x8DD7FA7413D39A80B6AA3CF179CE54D4)
Полное имя : D:\Мои раздачи\Передел\Crank 2006.UHD.BDRip.2160p.HDR.x265.10bit.HEVC.Master5.mkv
Формат : Matroska
Версия формата : Version 4 / Version 2
Размер файла : 14,0 Гбайт
Продолжительность : 1 ч. 27 м.
Режим общего битрейта : Переменный
Общий поток : 22,8 Мбит/сек
Название фильма : Crank 2006.UHD.BDRip.2160p.HDR.x265.10bit.HEVC.Master5
Дата кодирования : UTC 2019-05-16 09:30:33
Программа кодирования : mkvmerge v7.9.0 ('Birds') 64bit
Библиотека кодирования : libebml v1.3.1 + libmatroska v1.4.2
Обложка : Yes
Attachments : cover

Видео
Идентификатор : 1
Формат : HEVC
Формат/Информация : High Efficiency Video Coding
Коммерческое название : HDR10
Профиль формата : Main 10@L5.1@High
Идентификатор кодека : V_MPEGH/ISO/HEVC
Продолжительность : 1 ч. 27 м.
Битрейт : 15,7 Мбит/сек
Ширина : 3840 пикселей
Высота : 2072 пикселя
Соотношение сторон : 1,85:1
Режим частоты кадров : Постоянный
Частота кадров : 23,976 (24000/1001) кадра/сек
Цветовое пространство : YUV
Субдискретизация насыщенности : 4:2:0
Битовая глубина : 10 бит
Бит/(Пиксели*Кадры) : 0.083
Размер потока : 9,64 Гбайт (69%)
Заголовок : Crank 2006.UHD.BDRip.2160p.HDR.x265.10bit.HEVC.Master5
Язык : English
Default : Да
Forced : Нет
Цветовой диапазон : Limited
Основные цвета : BT.2020
Характеристики трансфера : PQ
Коэффициенты матрицы : BT.2020 non-constant
MasteringDisplay_ColorPrimaries : Display P3
MasteringDisplay_Luminance : min: 0.0001 cd/m2, max: 1000 cd/m2
MaxCLL : 732 cd/m2
MaxFALL : 213 cd/m2

Аудио #1
Идентификатор : 2
Формат : AC-3
Формат/Информация : Audio Coding 3
Идентификатор кодека : A_AC3
Продолжительность : 1 ч. 27 м.
Вид битрейта : Постоянный
Битрейт : 448 Кбит/сек
Каналы : 6 каналов
Расположение каналов : Front: L C R, Side: L R, LFE
Частота : 48,0 КГц
Частота кадров : 31,250 кадров/сек (1536 SPF)
Битовая глубина : 16 бит
Метод сжатия : С потерями
Размер потока : 281 Мбайт (2%)
Заголовок : Дублированный
Язык : Russian
ServiceKind/String : Complete Main
Default : Да
Forced : Нет

Аудио #2
Идентификатор : 3
Формат : TrueHD
Профиль формата : TrueHD+Atmos / TrueHD
Идентификатор кодека : A_TRUEHD
Продолжительность : 1 ч. 27 м.
Вид битрейта : Переменный
Битрейт : 5906 Кбит/сек
Максимальный битрейт : 8640 Кбит/сек
Каналы : Object Based / 8 каналов
Расположение каналов : Object Based / Front: L C R, Side: L R, Back: L R, LFE
Частота : / 48,0 КГц
Частота кадров : 1200,000 кадров/сек (40 SPF)
Метод сжатия : Без потерь
Размер потока : 3,61 Гбайт (26%)
Заголовок : TrueHD Atmos 7.1
Язык : English
Default : Нет
Forced : Нет

Аудио #3
Идентификатор : 4
Формат : AC-3
Формат/Информация : Audio Coding 3
Идентификатор кодека : A_AC3
Продолжительность : 1 ч. 27 м.
Вид битрейта : Постоянный
Битрейт : 640 Кбит/сек
Каналы : 6 каналов
Расположение каналов : Front: L C R, Side: L R, LFE
Частота : 48,0 КГц
Частота кадров : 31,250 кадров/сек (1536 SPF)
Битовая глубина : 16 бит
Метод сжатия : С потерями
Размер потока : 401 Мбайт (3%)
Заголовок : AC3 5.1
Язык : English
ServiceKind/String : Complete Main
Default : Нет
Forced : Нет

Текст #1
Идентификатор : 5
Формат : UTF-8
Идентификатор кодека : S_TEXT/UTF8
Идентификатор кодека/Информация : UTF-8 Plain Text
Продолжительность : 1 ч. 19 м.
Битрейт : 85 бит/сек
ElementCount : 1170
Размер потока : 50,2 Кбайт (0%)
Заголовок : Русские
Язык : Russian
Default : Нет
Forced : Нет

Текст #2
Идентификатор : 6
Формат : PGS
Режим смешивания : zlib
Идентификатор кодека : S_HDMV/PGS
Идентификатор кодека/Информация : Picture based subtitle format used on BDs/HD-DVDs
Продолжительность : 1 ч. 19 м.
Битрейт : 17,8 Кбит/сек
ElementCount : 1949
Размер потока : 10,1 Мбайт (0%)
Заголовок : English
Язык : English
Default : Нет
Forced : Нет

Текст #3
Идентификатор : 7
Формат : PGS
Режим смешивания : zlib
Идентификатор кодека : S_HDMV/PGS
Идентификатор кодека/Информация : Picture based subtitle format used on BDs/HD-DVDs
Продолжительность : 1 ч. 24 м.
Битрейт : 18,7 Кбит/сек
ElementCount : 2242
Размер потока : 11,3 Мбайт (0%)
Заголовок : English (SDH)
Язык : English
Default : Нет
Forced : Нет

Меню
00:00:00.000 : en:Chapter 01
00:04:45.410 : en:Chapter 02
00:07:54.516 : en:Chapter 03
00:13:47.076 : en:Chapter 04
00:21:17.985 : en:Chapter 05
00:23:52.598 : en:Chapter 06
00:28:39.009 : en:Chapter 07
00:35:01.683 : en:Chapter 08
00:39:15.520 : en:Chapter 09
00:45:54.543 : en:Chapter 10
00:52:32.358 : en:Chapter 11
00:54:30.476 : en:Chapter 12
01:01:33.565 : en:Chapter 13
01:04:41.753 : en:Chapter 14
01:08:22.307 : en:Chapter 15
01:18:45.346 : en:Chapter 16



Скачать Адреналин через торрент https://a.radikal.ru/a40/1905/23/fa2363914e2f.jpg Скачать, смотреть онлайн Адреналин бесплантно в хорошем качестве Описание: Наемный убийца Чев узнает, что недоброжелатели отравили его редким китайским ядом и отрава начнет действовать немедленно, как ... 8.5 10 6
Торрент: Зарегистрирован [2019-05-17 03:25] · скачан: 45 раз
Статус: √ проверено
Размер: 13.98 GB
Как cкачать? Как скачать Адреналин через торрент | UTorrent

% Раздел Тема Автор DL S | L
Фильмы [HD 720p, 1080p] (Хороший звук DUB, MVO) [ 14.41 GB ] Адреналин 2: Высокое напряжение / Crank: High Voltage | DUB | 1080p bober100 Скачать
1 | 0
Ultra HD (UHD: 2K, 4K, 8K) [ 35.13 GB ] Адреналин / Crank | Лицензия | 2160p sheker187 Скачать
1 | 0
Ultra HD (UHD: 2K, 4K, 8K) [ 58.47 GB ] Адреналин / Crank | Лицензия | 2160p sheker187 Скачать
1 | 0
Ultra HD (UHD: 2K, 4K, 8K) [ 41.94 GB ] Адреналин / Crank | Лицензия | 2160p sheker187 Скачать
1 | 0
Ultra HD (UHD: 2K, 4K, 8K) [ 41.06 GB ] Адреналин / Crank | Лицензия | 2160p sheker187 Скачать
1 | 0
Фильмы [HD 720p, 1080p] (Хороший звук DUB, MVO) [ 5.17 GB ] Адреналин 2: Высокое напряжение / Crank 2: High Voltage | DUB | 720p Ворон Скачать
1 | 0
Фильмы 2009 [ 742 MB ] Адреналин 2: Высокое напряжение / Crank 2: High Voltage | DUB | HDRip, DUB (лицензия Vampir7 Скачать
1 | 0

28-11-2019 20:33  


Отключить вcю реклaмy на сайте, в т.ч. и в плеере онлайн просмотра!

17-05-2019 03:26 Адреналин Скачать торрент  

Торрент обновлён!
Убран рассинхрон звука :)



    Дорогой пользователь! Огромная просьба, поблагодарите релизера, оцените раздачу и оставьте свои комментарий, если Вы скачали Адреналин через торрент бесплатно!!
    Комментировать посты могут только пользователи прошедшие не сложную регистрацию
    Показать сообщения:    


    Адреналин через торрент
    Скачать бесплатно Адреналин
    Адреналин скачать торрент
    Адреналин смотреть онлайн
    Cкачать фильм Адреналин бесплатно
    Адреналин скачать торрент в хорошем качестве
    Адреналин смотреть онлайн бесплатно в хорошем качестве
    Вы не можете начинать темы
    Вы не можете отвечать на сообщения
    Вы не можете редактировать свои сообщения
    Вы не можете удалять свои сообщения
    Вы не можете голосовать в опросах
    Вы не можете прикреплять файлы к сообщениям
    Вы можете скачивать файлы
    Адреналин / Crank [2006, Боевик, триллер, криминал, UHD BDRip 2160p] Дубляж [Лицензия] смотреть онлайн, скачать торрент picoco.icu