Доктор Стрэндж

Лицензия

Добыча

MVO

Дом дракона

1 сезон

Тор

Лицензия

Мэверик

Лицензия

Там, где раки поют

MVO

Властелин колец

1 сезон

Ultimate

pack

Рекомендуем

30

Repack

ВАЖНО

ВАЖНО

Ghostwire

RePack

jed

RePack

nioh2

RePack

RDR2

RePack

NEED FOR SPEED™ PAYBACK

RePack

скачать торрент

Кинопоиск HD

Острые козырьки 6 сезон

6 сезон

FAR CRY 6

RePack

скачать торрент

Лицензия

скачать торрент

MVO

1

1 сезон

скачать торрент

1 сезон

скачать торрент

Лицензия

  

Крепостная актриса (Роман Тихомиров) [1963, СССР, мюзикл, DVDRip от AVP Studio]

Крепостная актриса через торрент piratbit.org

Размер: 744 MB | Добавлен: 3 года 4 мес. назад | Торрент скачан:36 раз
Смотреть онлайн Крепостная актриса | Скачать   

16-05-2019 12:09 Крепостная актриса Скачать торрент  

Крепостная актриса
Страна: СССР
Производство: Ленфильм

Жанр: мюзикл
Год выпуска: 1963
Продолжительность: 01:34:29

Перевод: Не требуется
Cубтитры: нет
Оригинальная аудиодорожка: русский

Режиссер: Роман Тихомиров

В ролях:
Тамара Сёмина, Евгений Леонов, Дмитрий Смирнов (II), Сергей Юрский, Гренада Мнацаканова, Александр Потапов, Сергей Филиппов, Гликерия Богданова-Чеснокова, Марина Полбенцева, Александр Орлов, Лев Лемке, Светлана Мазовецкая, Георгий Штиль, Алексей Смирнов, М. Муковозов...
Об актёрах подробней

Описание:
Выдающийся актерский ансамбль с незабываемыми ролями Евгения Леонова, Сергея Юрского оттеняет жемчужину национального характера – Тамару Семину. Как мало она сыграла. Зато какие чудесные роли…

Источник: DVD5 R5
Качество видео: DVDRip
Формат видео: AVI

Видео: 688х320 (2,2:1), 25,000 fps, XviD ~ 900 kbps avg, 0.163 bit/pixel
Аудио: 48 kHz, Dolby Digital AC3 2.0, 192 kbps

Раздача от:
Общее
Полное имя : Krepostnaya.aktrisa.1963.DVDRip_[New-team]_by_AVP_Studio.avi
Формат : AVI
Формат/Информация : Audio Video Interleave
Размер файла : 744 Мбайт
Продолжительность : 1 ч. 34 м.
Общий поток : 1101 Кбит/сек
Программа кодирования : VirtualDubMod 1.5.10.3 | www.virtualdub-fr.org || (build 2550/release)
Библиотека кодирования : VirtualDubMod build 2550/release

Видео
Идентификатор : 0
Формат : MPEG-4 Visual
Профиль формата : Advanced Simple@L5
Настройки формата : BVOP1 / Custom Matrix
Параметр BVOP формата : 1
Параметр QPel формата : Нет
Параметр GMC формата : Без точки перехода
Параметр матрицы формата : Выборочная
Идентификатор кодека : XVID
Идентификатор кодека/Подсказка : XviD
Продолжительность : 1 ч. 34 м.
Битрейт : 900 Кбит/сек
Ширина : 688 пикселей
Высота : 320 пикселей
Соотношение сторон : 2,2:1
Частота кадров : 25,000 кадров/сек
Цветовое пространство : YUV
Субдискретизация насыщенности : 4:2:0
Битовая глубина : 8 бит
Тип развёртки : Прогрессивная
Метод сжатия : С потерями
Бит/(Пиксели*Кадры) : 0.163
Размер потока : 608 Мбайт (82%)
Библиотека кодирования : XviD 73

Аудио
Идентификатор : 1
Формат : AC-3
Формат/Информация : Audio Coding 3
Коммерческое название : Dolby Digital
Идентификатор кодека : 2000
Продолжительность : 1 ч. 34 м.
Вид битрейта : Постоянный
Битрейт : 192 Кбит/сек
Каналы : 2 канала
ChannelLayout : L R
Частота : 48,0 КГц
Частота кадров : 31,250 кадров/сек (1536 SPF)
Битовая глубина : 16 бит
Метод сжатия : С потерями
Размер потока : 130 Мбайт (17%)
Выравнивание : Разделение по промежуткам
Продолжительность промежутка : 40 мс. (1,00 видеокадр)
Время предзагрузки промежутка : 500 мс



Скачать Крепостная актриса через торрент http://picplus.ru/img/1905/16/009dcac7.png Скачать, смотреть онлайн Крепостная актриса бесплантно в хорошем качестве Описание:Выдающийся актерский ансамбль с незабываемыми ролями Евгения Леонова, Сергея Юрского оттеняет жемчужину национального характера – ... 10 10 1
Торрент: Зарегистрирован [2019-05-16 12:09] · скачан: 36 раз
Статус: √ проверено
Размер: 744 MB
Как cкачать? Как скачать Крепостная актриса через торрент | UTorrent

% Раздел Тема Автор DL S | L
Кино СССР [ 744 MB ] Крепостная актриса | | DVDRip-AVC от AVP Studio AVP Studio Скачать
1 | 0

28-11-2019 20:33  

Отключить вcю реклaмy на сайте

    Дорогой пользователь! Огромная просьба, поблагодарите релизера, оцените раздачу и оставьте свои комментарий, если Вы скачали Крепостная актриса через торрент бесплатно!!
    Комментировать посты могут только пользователи прошедшие не сложную регистрацию
    Показать сообщения:    


    Крепостная актриса через торрент
    Скачать бесплатно Крепостная актриса
    Крепостная актриса скачать торрент
    Крепостная актриса смотреть онлайн
    Cкачать фильм Крепостная актриса бесплатно
    Крепостная актриса скачать торрент в хорошем качестве
    Крепостная актриса смотреть онлайн бесплатно в хорошем качестве
    Вы не можете начинать темы
    Вы не можете отвечать на сообщения
    Вы не можете редактировать свои сообщения
    Вы не можете удалять свои сообщения
    Вы не можете голосовать в опросах
    Вы не можете прикреплять файлы к сообщениям
    Вы можете скачивать файлы